HomePage - Come attivare il proprio account - Regole del Forum

HOT NEWS!!!

Principessa Mononoke (1997) BDRip 1080p HEVC ITA JAP AC3 ITA Sub PirateMKV

Rogue one-a Star Wars story (2016)


Rogue One A Star Wars Story il primo capitolo di una nuova avventurosa serie cinematografica che esplora i personaggi e gli eventi che ruotano intorno alla saga di Guerre Stellari.


1080p
720p
UNTOUCHED-1080p
BLURAY FULL
BLURAY FULL 3D
Principessa Mononoke (1997) BDRip 1080p HEVC ITA JAP AC3 ITA Sub PirateMKV


Avviso a tutti i lettori di mondowarezz.Le sezioni Ebook,Quotidiani e Riviste.Sono momentaneamente chiuse.Vi preghiamo di non intasare la chatbox con le stesse domande.Grazie
Risultati da 1 a 1 di 1
  1. #1
    Status
    Offline
    L'avatar di PirateMKV
    Data Registrazione

    08.04.2015

    Messaggi

    2,781

    Ha ringraziato
    85 volte
    Ha Ricevuto 14,386 ringraziamenti in 2,506 discussioni volte
    Taggato
    1 Post(s)

    Principessa Mononoke (1997) BDRip 1080p HEVC ITA JAP AC3 ITA Sub PirateMKV






    Titolo: Princess Mononoke
    Nazione: Japan
    Anno: 1997
    Genere: Animation, Adventure, Fantasy
    Durata: 134 min
    Regia: Hayao Miyazaki
    Cast: Billy Crudup, Billy Bob Thornton, Minnie Driver, John DiMaggio


    In seguito allo scontro con un animale posseduto da un demone il principe Ashitaka viene contaminato da una maledizione mortale. Si mette dunque in viaggio per scoprirne l'origine e chiedere una cura al grande Dio Bestia, l'unico in grado di guarirlo. Arrivato nelle regioni da cui proveniva la bestia scopre una guerra tra uomini e una forma primitiva di animali della foresta, giganti, senzienti e aiutati da quella che chiamano la Principessa Spettro, una ragazza cresciuta dai lupi che ha rinnegato gli uomini. Dall'altra parte gli uomini, capitanati da Lady Eboshi che gestisce con amore, giustizia e piet il suo villaggio di fabbri, vogliono lavorare la montagna e abbattere gli alberi per poter estrarre il ferro (fonte di ricchezza). In mezzo un gruppo di monaci cerca di fomentare gli uomini ad uccidere il Dio Bestia e rubarne la testa perch, si dice, fornisca l'eterna giovinezza.

    Nome Versione: PirateMKV
    Fonte Video: BluRay
    Fonte Audio: BluRay



     






     

    General
    Unique ID : 245780113140521265559872344512450853528 (0xB8E787289900D3B2A391D6EE1260FA98)
    Complete name : C:\Users\Administrator\Downloads\********************nime\Princip essa Mononoke (1997) BDRip 1080p HEVC ITA JAP AC3 ITA Sub PirateMKV.mkv
    Format : Matroska
    Format version : Version 4 / Version 2
    File size : 6.48 GiB
    Duration : 2h 13mn
    Overall bit rate : 6 959 Kbps
    Movie name : Principessa Mononoke (1997) - PirateMKV
    Encoded date : UTC 2016-05-12 09:38:36
    Writing application : mkvmerge v9.1.0 ('Little Earthquakes') 64bit
    Writing library : libebml v1.3.3 libmatroska v1.4.4 / Lavf57.36.100

    Video
    ID : 1
    Format : HEVC
    Format/Info : High Efficiency Video Coding
    Format profile : [email protected]@Main
    Codec ID : V_MPEGH/ISO/HEVC
    Duration : 2h 13mn
    Bit rate : 5 677 Kbps
    Width : 1 920 pixels
    Height : 1 038 pixels
    Display aspect ratio : 1.85:1
    Frame rate mode : Constant
    Frame rate : 24.000 fps
    Color space : YUV
    Chroma subsampling : 4:2:0
    Bit depth : 8 bits
    Bits/(Pixel*Frame) : 0.119
    Stream size : 5.28 GiB (82%)
    Writing library : x265 1.9:[Windows][GCC 5.2.0][64 bit] 8bit
    Encoding settings : wpp / ctu=64 / min-cu-size=8 / max-tu-size=32 / tu-intra-depth=3 / tu-inter-depth=3 / me=2 / subme=4 / merange=57 / no-rect / no-amp / max-merge=3 / temporal-mvp / no-early-skip / rdpenalty=0 / no-tskip / no-tskip-fast / strong-intra-smoothing / no-lossless / no-cu-lossless / no-constrained-intra / fast-intra / open-gop / no-temporal-layers / interlace=0 / keyint=250 / min-keyint=24 / scenecut=40 / rc-lookahead=40 / lookahead-slices=0 / bframes=8 / bframe-bias=0 / b-adapt=2 / ref=4 / limit-refs=1 / limit-modes / weightp / weightb / aq-mode=1 / qg-size=32 / aq-strength=2.00 / cbqpoffs=0 / crqpoffs=0 / rd=4 / psy-rd=1.00 / rdoq-level=0 / psy-rdoq=0.00 / signhide / deblock=-1:-1 / sao / no-sao-non-deblock / b-pyramid / no-cutree / no-intra-refresh / rc=crf / crf=21.5 / qcomp=0.60 / qpmin=0 / qpmax=51 / qpstep=4 / vbv-maxrate=12000 / vbv-bufsize=12000 / crf-max=0.0 / ipratio=1.40 / pbratio=1.30
    Language : English
    Default : Yes
    Forced : No
    Color range : Limited
    Matrix coefficients : BT.709

    Audio #1
    ID : 2
    Format : AC-3
    Format/Info : Audio Coding 3
    Mode extension : CM (complete main)
    Format settings, Endianness : Big
    Codec ID : A_AC3
    Duration : 2h 13mn
    Bit rate mode : Constant
    Bit rate : 640 Kbps
    Channel(s) : 6 channels
    Channel positions : Front: L C R, Side: L R, LFE
    Sampling rate : 48.0 KHz
    Frame rate : 31.250 fps (1536 spf)
    Compression mode : Lossy
    Stream size : 610 MiB (9%)
    Title : AC3 5.1
    Language : Italian
    Default : Yes
    Forced : No

    Audio #2
    ID : 3
    Format : AC-3
    Format/Info : Audio Coding 3
    Mode extension : CM (complete main)
    Format settings, Endianness : Big
    Codec ID : A_AC3
    Duration : 2h 13mn
    Bit rate mode : Constant
    Bit rate : 640 Kbps
    Channel(s) : 6 channels
    Channel positions : Front: L C R, Side: L R, LFE
    Sampling rate : 48.0 KHz
    Frame rate : 31.250 fps (1536 spf)
    Compression mode : Lossy
    Stream size : 610 MiB (9%)
    Title : AC3 5.1
    Language : Japanese
    Default : No
    Forced : No

    Text #1
    ID : 4
    Format : UTF-8
    Codec ID : S_TEXT/UTF8
    Codec ID/Info : UTF-8 Plain Text
    Duration : 2h 13mn
    Bit rate : 1 bps
    Count of elements : 33
    Stream size : 1.32 KiB (0%)
    Title : Forced
    Language : Italian
    Default : Yes
    Forced : Yes

    Text #2
    ID : 5
    Format : UTF-8
    Codec ID : S_TEXT/UTF8
    Codec ID/Info : UTF-8 Plain Text
    Duration : 2h 13mn
    Bit rate : 54 bps
    Count of elements : 1398
    Stream size : 53.0 KiB (0%)
    Title : Normal
    Language : Italian
    Default : No
    Forced : No

    Text #3
    ID : 6
    Format : UTF-8
    Codec ID : S_TEXT/UTF8
    Codec ID/Info : UTF-8 Plain Text
    Duration : 2h 13mn
    Bit rate : 57 bps
    Count of elements : 1433
    Stream size : 55.6 KiB (0%)
    Title : SDH
    Language : Italian
    Default : No
    Forced : No

    Menu
    00:00:00.000 : en:00:00:00.000
    00:10:38.417 : en:00:10:38.417
    00:21:09.833 : en:00:21:09.833
    00:32:51.625 : en:00:32:51.625
    00:44:13.708 : en:00:44:13.708
    00:53:59.542 : en:00:53:59.542
    01:05:01.625 : en:01:05:01.625
    01:17:19.000 : en:01:17:19.000
    01:27:18.208 : en:01:27:18.208
    01:38:55.417 : en:01:38:55.417
    01:48:49.833 : en:01:48:49.833
    02:00:33.833 : en:02:00:33.833






    ** Contenuto Nascosto: Schiaccia il bottone RINGRAZIA per visualizzare i link **


    Password: W9uf3209bh0Ped970N
  2. 4 utenti hanno ringraziato PirateMKV per ci che ha scritto.

    adb80 (6 Giorni Fa), danyandgeri (2 Settimane Fa), hitokiri (27.01.2017), Menarello (16.10.2016)

Permessi di Scrittura

  • Tu non puoi inviare nuove discussioni
  • Tu non puoi inviare risposte
  • Tu non puoi inviare allegati
  • Tu non puoi modificare i tuoi messaggi
  •