HomePage - Come attivare il proprio account - Regole del Forum

HOT NEWS!!!

Rambo 3 - Uncut Ultimate Edition (1988) BDRip 1080p HEVC ITA ENG AC3 ITA Sub PirateMKV

Rogue one-a Star Wars story (2016)


Rogue One A Star Wars Story il primo capitolo di una nuova avventurosa serie cinematografica che esplora i personaggi e gli eventi che ruotano intorno alla saga di Guerre Stellari.


1080p
720p
UNTOUCHED-1080p
BLURAY FULL
BLURAY FULL 3D
Rambo 3 - Uncut Ultimate Edition (1988) BDRip 1080p HEVC ITA ENG AC3 ITA Sub PirateMKV


Avviso a tutti i lettori di mondowarezz.Le sezioni Ebook,Quotidiani e Riviste.Sono momentaneamente chiuse.Vi preghiamo di non intasare la chatbox con le stesse domande.Grazie
Risultati da 1 a 1 di 1
  1. #1
    Status
    Offline
    L'avatar di PirateMKV
    Data Registrazione

    08.04.2015

    Messaggi

    2,781

    Ha ringraziato
    85 volte
    Ha Ricevuto 14,588 ringraziamenti in 2,511 discussioni volte
    Taggato
    1 Post(s)

    Rambo 3 - Uncut Ultimate Edition (1988) BDRip 1080p HEVC ITA ENG AC3 ITA Sub PirateMKV






    Titolo: Rambo III
    Nazione: USA
    Anno: 1988
    Genere: Action, Adventure, Thriller
    Durata: 102 min
    Regia: Peter MacDonald
    Cast: Sylvester Stallone, Richard Crenna, Marc de Jonge, Kurtwood Smith


    Rambo s' ritirato a vita privata (una vita "non violenta" in un monastero). Ma un giorno deve imbracciare di nuovo il mitra. Il suo ex comandante, il colonnello Trautman, stato preso prigioniero dai russi in Afghanistan. Rambo lo libera dopo aver fatto polpette di mezza armata rossa. Terzo capitolo delle avventure dell'eroe spaccatutto. Il plot infantile, ma le scene d'azione realizzate come Dio comanda.

    Nome Versione: PirateMKV
    Fonte Video: BluRay
    Fonte Audio: BluRay



     






     

    General
    Unique ID : 254937835774989339909314658889537692593 (0xBFCB3DBE7902DAE393CB343C214423B1)
    Complete name : C:\Users\Administrator\Downloads\rambo\Rambo 3 - Uncut Ultimate Edition (1988) BDRip 1080p HEVC ITA ENG AC3 ITA Sub PirateMKV.mkv
    Format : Matroska
    Format version : Version 4 / Version 2
    File size : 5.20 GiB
    Duration : 1h 41mn
    Overall bit rate : 7 317 Kbps
    Movie name : Rambo 3 - Uncut Ultimate Edition (1988) - PirateMKV
    Encoded date : UTC 2016-05-08 14:19:31
    Writing application : mkvmerge v9.1.0 ('Little Earthquakes') 64bit
    Writing library : libebml v1.3.3 libmatroska v1.4.4 / Lavf57.36.100

    Video
    ID : 1
    Format : HEVC
    Format/Info : High Efficiency Video Coding
    Format profile : [email protected]@Main
    Codec ID : V_MPEGH/ISO/HEVC
    Duration : 1h 41mn
    Bit rate : 6 228 Kbps
    Width : 1 920 pixels
    Height : 818 pixels
    Display aspect ratio : 2.35:1
    Frame rate mode : Constant
    Frame rate : 23.976 (24000/1001) fps
    Color space : YUV
    Chroma subsampling : 4:2:0
    Bit depth : 8 bits
    Bits/(Pixel*Frame) : 0.165
    Stream size : 4.43 GiB (85%)
    Writing library : x265 1.9:[Windows][GCC 5.2.0][64 bit] 8bit
    Encoding settings : wpp / ctu=64 / min-cu-size=8 / max-tu-size=32 / tu-intra-depth=3 / tu-inter-depth=3 / me=2 / subme=4 / merange=57 / no-rect / no-amp / max-merge=3 / temporal-mvp / no-early-skip / rdpenalty=0 / no-tskip / no-tskip-fast / strong-intra-smoothing / no-lossless / no-cu-lossless / no-constrained-intra / fast-intra / open-gop / no-temporal-layers / interlace=0 / keyint=250 / min-keyint=23 / scenecut=40 / rc-lookahead=40 / lookahead-slices=0 / bframes=8 / bframe-bias=0 / b-adapt=2 / ref=5 / limit-refs=1 / limit-modes / weightp / weightb / aq-mode=1 / qg-size=32 / aq-strength=2.00 / cbqpoffs=0 / crqpoffs=0 / rd=4 / psy-rd=1.00 / rdoq-level=0 / psy-rdoq=0.00 / signhide / deblock=-1:-1 / sao / no-sao-non-deblock / b-pyramid / no-cutree / no-intra-refresh / rc=crf / crf=22.6 / qcomp=0.60 / qpmin=0 / qpmax=51 / qpstep=4 / vbv-maxrate=12000 / vbv-bufsize=12000 / crf-max=0.0 / ipratio=1.40 / pbratio=1.30
    Language : English
    Default : Yes
    Forced : No
    Color range : Limited
    Matrix coefficients : BT.709

    Audio #1
    ID : 2
    Format : AC-3
    Format/Info : Audio Coding 3
    Mode extension : CM (complete main)
    Format settings, Endianness : Big
    Codec ID : A_AC3
    Duration : 1h 41mn
    Bit rate mode : Constant
    Bit rate : 448 Kbps
    Channel(s) : 2 channels
    Channel positions : Front: L R
    Sampling rate : 48.0 KHz
    Frame rate : 31.250 fps (1536 spf)
    Compression mode : Lossy
    Stream size : 326 MiB (6%)
    Title : AC3 2.0
    Language : Italian
    Default : Yes
    Forced : No

    Audio #2
    ID : 3
    Format : AC-3
    Format/Info : Audio Coding 3
    Mode extension : CM (complete main)
    Format settings, Endianness : Big
    Codec ID : A_AC3
    Duration : 1h 41mn
    Bit rate mode : Constant
    Bit rate : 640 Kbps
    Channel(s) : 6 channels
    Channel positions : Front: L C R, Side: L R, LFE
    Sampling rate : 48.0 KHz
    Frame rate : 31.250 fps (1536 spf)
    Compression mode : Lossy
    Stream size : 465 MiB (9%)
    Title : AC3 5.1
    Language : English
    Default : No
    Forced : No

    Text #1
    ID : 4
    Format : UTF-8
    Codec ID : S_TEXT/UTF8
    Codec ID/Info : UTF-8 Plain Text
    Duration : 1h 18mn
    Bit rate : 0 bps
    Count of elements : 14
    Stream size : 394 Bytes (0%)
    Title : Forced
    Language : Italian
    Default : Yes
    Forced : Yes

    Text #2
    ID : 5
    Format : UTF-8
    Codec ID : S_TEXT/UTF8
    Codec ID/Info : UTF-8 Plain Text
    Duration : 1h 29mn
    Bit rate : 22 bps
    Count of elements : 468
    Stream size : 14.6 KiB (0%)
    Title : Normal
    Language : Italian
    Default : No
    Forced : No

    Text #3
    ID : 6
    Format : UTF-8
    Codec ID : S_TEXT/UTF8
    Codec ID/Info : UTF-8 Plain Text
    Duration : 1h 34mn
    Bit rate : 21 bps
    Count of elements : 470
    Stream size : 14.8 KiB (0%)
    Title : Normal
    Language : Italian
    Default : No
    Forced : No

    Menu
    00:00:00.000 : en:00:00:00.000
    00:07:19.522 : en:00:07:19.522
    00:14:30.870 : en:00:14:30.870
    00:22:07.952 : en:00:22:07.952
    00:27:56.216 : en:00:27:56.216
    00:36:20.470 : en:00:36:20.470
    00:42:00.017 : en:00:42:00.017
    00:48:49.718 : en:00:48:49.718
    00:55:52.683 : en:00:55:52.683
    01:02:10.101 : en:01:02:10.101
    01:09:55.274 : en:01:09:55.274
    01:14:44.271 : en:01:14:44.271
    01:19:48.659 : en:01:19:48.659
    01:26:27.432 : en:01:26:27.432
    01:33:52.752 : en:01:33:52.752
    01:36:21.901 : en:01:36:21.901






    ** Contenuto Nascosto: Schiaccia il bottone RINGRAZIA per visualizzare i link **


    Password: W9uf3209bh0Ped970N
  2. 6 utenti hanno ringraziato PirateMKV per ci che ha scritto.

    4K. (09.02.2017), adb80 (1 Settimana Fa), conteyoghi (16.05.2016), ivanverona1 (1 Settimana Fa), Menarello (16.10.2016), verul (13.09.2016)

Permessi di Scrittura

  • Tu non puoi inviare nuove discussioni
  • Tu non puoi inviare risposte
  • Tu non puoi inviare allegati
  • Tu non puoi modificare i tuoi messaggi
  •