HomePage - Come attivare il proprio account - Regole del Forum

HOT NEWS!!!

Rambo - Uncut Ultimate Edition (1982) BDRip 1080p HEVC ITA ENG AC3 ITA Sub PirateMKV

Rogue one-a Star Wars story (2016)


Rogue One A Star Wars Story č il primo capitolo di una nuova avventurosa serie cinematografica che esplora i personaggi e gli eventi che ruotano intorno alla saga di Guerre Stellari.


1080p
720p
UNTOUCHED-1080p
BLURAY FULL
BLURAY FULL 3D
Rambo - Uncut Ultimate Edition (1982) BDRip 1080p HEVC ITA ENG AC3 ITA Sub PirateMKV


Avviso a tutti i lettori di mondowarezz.Le sezioni Ebook,Quotidiani e Riviste.Sono momentaneamente chiuse.Vi preghiamo di non intasare la chatbox con le stesse domande.Grazie
Risultati da 1 a 1 di 1
  1. #1
    Status
    Offline
    L'avatar di PirateMKV
    Data Registrazione

    08.04.2015

    Messaggi

    2,781

    Ha ringraziato
    85 volte
    Ha Ricevuto 14,857 ringraziamenti in 2,525 discussioni volte
    Taggato
    1 Post(s)

    Rambo - Uncut Ultimate Edition (1982) BDRip 1080p HEVC ITA ENG AC3 ITA Sub PirateMKV






    Titolo: First Blood
    Nazione: USA
    Anno: 1982
    Genere: Action, Adventure
    Durata: 93 min
    Regia: Ted Kotcheff
    Cast: Sylvester Stallone, Richard Crenna, Brian Dennehy, Bill McKinney


    Giunto in una cittadina del Nord alla ricerca di un ex commilitone del Vietnam, l'eroe di guerra John Rambo č arrestato per vagabondaggio da un arrogante sceriffo. Ribellatosi alla sua brutalitā, Rambo fugge sulle montagne e viene braccato dai poliziotti. La sua perfetta preparazione militare gli consente di tenere in scacco oltre duecento uomini della Guardia Nazionale.

    Nome Versione: PirateMKV
    Fonte Video: BluRay
    Fonte Audio: BluRay



     






     

    General
    Unique ID : 197367713011438176823710774397773352796 (0x947BA38BF62F99FDA5C5AE6665350F5C)
    Complete name : C:\Users\Administrator\Downloads\rambo\Rambo - Uncut Ultimate Edition (1982) BDRip 1080p HEVC ITA ENG AC3 ITA Sub PirateMKV.mkv
    Format : Matroska
    Format version : Version 4 / Version 2
    File size : 3.90 GiB
    Duration : 1h 33mn
    Overall bit rate : 5 980 Kbps
    Movie name : Rambo - UnCut Ultimate Edition (1982) - PirateMKV
    Encoded date : UTC 2016-05-08 13:57:57
    Writing application : mkvmerge v9.1.0 ('Little Earthquakes') 64bit
    Writing library : libebml v1.3.3 libmatroska v1.4.4 / Lavf57.36.100

    Video
    ID : 1
    Format : HEVC
    Format/Info : High Efficiency Video Coding
    Format profile : [email protected]@Main
    Codec ID : V_MPEGH/ISO/HEVC
    Duration : 1h 33mn
    Bit rate : 4 890 Kbps
    Width : 1 920 pixels
    Height : 818 pixels
    Display aspect ratio : 2.35:1
    Frame rate mode : Constant
    Frame rate : 23.976 (24000/1001) fps
    Color space : YUV
    Chroma subsampling : 4:2:0
    Bit depth : 8 bits
    Bits/(Pixel*Frame) : 0.130
    Stream size : 3.19 GiB (82%)
    Writing library : x265 1.9:[Windows][GCC 5.2.0][64 bit] 8bit
    Encoding settings : wpp / ctu=64 / min-cu-size=8 / max-tu-size=32 / tu-intra-depth=3 / tu-inter-depth=3 / me=2 / subme=4 / merange=57 / no-rect / no-amp / max-merge=3 / temporal-mvp / no-early-skip / rdpenalty=0 / no-tskip / no-tskip-fast / strong-intra-smoothing / no-lossless / no-cu-lossless / no-constrained-intra / fast-intra / open-gop / no-temporal-layers / interlace=0 / keyint=250 / min-keyint=23 / scenecut=40 / rc-lookahead=40 / lookahead-slices=0 / bframes=8 / bframe-bias=0 / b-adapt=2 / ref=5 / limit-refs=3 / limit-modes / weightp / weightb / aq-mode=1 / qg-size=32 / aq-strength=2.00 / cbqpoffs=0 / crqpoffs=0 / rd=4 / psy-rd=1.00 / rdoq-level=0 / psy-rdoq=0.00 / signhide / deblock=-1:-1 / sao / no-sao-non-deblock / b-pyramid / no-cutree / no-intra-refresh / rc=crf / crf=22.6 / qcomp=0.60 / qpmin=0 / qpmax=51 / qpstep=4 / vbv-maxrate=12000 / vbv-bufsize=12000 / crf-max=0.0 / ipratio=1.40 / pbratio=1.30
    Language : English
    Default : Yes
    Forced : No
    Color range : Limited
    Matrix coefficients : BT.709

    Audio #1
    ID : 2
    Format : AC-3
    Format/Info : Audio Coding 3
    Mode extension : CM (complete main)
    Format settings, Endianness : Big
    Codec ID : A_AC3
    Duration : 1h 33mn
    Bit rate mode : Constant
    Bit rate : 448 Kbps
    Channel(s) : 2 channels
    Channel positions : Front: L R
    Sampling rate : 48.0 KHz
    Frame rate : 31.250 fps (1536 spf)
    Compression mode : Lossy
    Stream size : 299 MiB (7%)
    Title : AC3 2.0
    Language : Italian
    Default : Yes
    Forced : No

    Audio #2
    ID : 3
    Format : AC-3
    Format/Info : Audio Coding 3
    Mode extension : CM (complete main)
    Format settings, Endianness : Big
    Codec ID : A_AC3
    Duration : 1h 33mn
    Bit rate mode : Constant
    Bit rate : 640 Kbps
    Channel(s) : 6 channels
    Channel positions : Front: L C R, Side: L R, LFE
    Sampling rate : 48.0 KHz
    Frame rate : 31.250 fps (1536 spf)
    Compression mode : Lossy
    Stream size : 427 MiB (11%)
    Title : AC3 5.1
    Language : English
    Default : No
    Forced : No

    Text #1
    ID : 4
    Format : UTF-8
    Codec ID : S_TEXT/UTF8
    Codec ID/Info : UTF-8 Plain Text
    Duration : 1h 30mn
    Bit rate : 34 bps
    Count of elements : 588
    Stream size : 22.8 KiB (0%)
    Title : Normal
    Language : Italian
    Default : No
    Forced : No

    Text #2
    ID : 5
    Format : UTF-8
    Codec ID : S_TEXT/UTF8
    Codec ID/Info : UTF-8 Plain Text
    Duration : 1h 30mn
    Bit rate : 32 bps
    Count of elements : 609
    Stream size : 21.8 KiB (0%)
    Title : Normal
    Language : Italian
    Default : No
    Forced : No

    Menu
    00:00:00.000 : en:00:00:00.000
    00:04:59.674 : en:00:04:59.674
    00:09:53.843 : en:00:09:53.843
    00:17:36.555 : en:00:17:36.555
    00:23:19.481 : en:00:23:19.481
    00:30:46.428 : en:00:30:46.428
    00:36:53.920 : en:00:36:53.920
    00:42:11.946 : en:00:42:11.946
    00:48:37.540 : en:00:48:37.540
    00:53:55.274 : en:00:53:55.274
    01:00:01.431 : en:01:00:01.431
    01:08:01.744 : en:01:08:01.744
    01:13:48.007 : en:01:13:48.007
    01:17:42.366 : en:01:17:42.366
    01:22:46.545 : en:01:22:46.545
    01:29:44.337 : en:01:29:44.337






    ** Contenuto Nascosto: Schiaccia il bottone RINGRAZIA per visualizzare i link **


    Password: W9uf3209bh0Ped970N
  2. 5 utenti hanno ringraziato PirateMKV per ciō che ha scritto.

    4K. (09.02.2017), gerico (14.05.2016), ivanverona1 (2 Settimane Fa), Menarello (16.10.2016), verul (13.09.2016)

Permessi di Scrittura

  • Tu non puoi inviare nuove discussioni
  • Tu non puoi inviare risposte
  • Tu non puoi inviare allegati
  • Tu non puoi modificare i tuoi messaggi
  •