HomePage - Come attivare il proprio account - Regole del Forum

HOT NEWS!!!

Resident Evil - Afterlife (2010) BDRip 720p HEVC ITA ENG AC3 ITA ENG Sub PirateMKV

Rogue one-a Star Wars story (2016)


Rogue One A Star Wars Story il primo capitolo di una nuova avventurosa serie cinematografica che esplora i personaggi e gli eventi che ruotano intorno alla saga di Guerre Stellari.


1080p
720p
UNTOUCHED-1080p
BLURAY FULL
BLURAY FULL 3D
Resident Evil - Afterlife (2010) BDRip 720p HEVC ITA ENG AC3 ITA ENG Sub PirateMKV


Avviso a tutti i lettori di mondowarezz.Le sezioni Ebook,Quotidiani e Riviste.Sono momentaneamente chiuse.Vi preghiamo di non intasare la chatbox con le stesse domande.Grazie
Risultati da 1 a 1 di 1
  1. #1
    Status
    Offline
    L'avatar di PirateMKV
    Data Registrazione

    08.04.2015

    Messaggi

    2,781

    Ha ringraziato
    85 volte
    Ha Ricevuto 14,379 ringraziamenti in 2,506 discussioni volte
    Taggato
    1 Post(s)

    Resident Evil - Afterlife (2010) BDRip 720p HEVC ITA ENG AC3 ITA ENG Sub PirateMKV






    Titolo: Resident Evil: Afterlife
    Nazione: Germany, France, USA, Canada
    Anno: 2010
    Genere: Action, Adventure, Horror
    Durata: 97 min
    Regia: Paul W.S. Anderson
    Cast: Milla Jovovich, Ali Larter, Kim Coates, Shawn Roberts


    La bella Milla Jovovich di Il quinto elemento ritorna a vestire i panni di Alice, macchina da guerra geneticamente modificata dalla Umbrella Corporation che dopo aver acquisito incredibili abilit fisiche, ne viene privata dalla stessa malefica organizzazione, con suo grande sollievo e ringraziamento, bisogna sottolinearlo. Tornata umana a Tokyo, la ragazza si reca in Alaska, alla ricerca di una fantomatica Arcadia, che ospiterebbe dei sopravvissuti all'epidemia di zombies creati dal Virus T che si praticamente estesa su tutto il mondo. L, raccatta l'amica Claire Redfield, che nel frattempo ha perso la memoria, e in sua compagnia, si spinge fino a un carcere di Los Angeles, all'interno del quale, con altri superstiti carichi di speranze e un particolare prigioniero, cercheranno di raggiungere la vera Arcadia: una grande nave-cargo.

    Nome Versione: PirateMKV
    Fonte Video: BluRay
    Fonte Audio: BluRay



     






     

    General
    Unique ID : 172665527471006212192976168808940997183 (0x81E62BC4D1E28BC9A057D98A5F3E8A3F)
    Complete name : C:\Users\Administrator\Downloads\Resident Evil 4\Resident Evil - Afterlife (2010) BDRip 720p HEVC ITA ENG AC3 ITA ENG Sub PirateMKV.mkv
    Format : Matroska
    Format version : Version 4 / Version 2
    File size : 2.29 GiB
    Duration : 1h 36mn
    Overall bit rate : 3 387 Kbps
    Movie name : Resident Evil - Afterlife (2010) - PirateMKV
    Encoded date : UTC 2016-05-14 08:44:08
    Writing application : mkvmerge v9.1.0 ('Little Earthquakes') 64bit
    Writing library : libebml v1.3.3 libmatroska v1.4.4 / Lavf57.36.100

    Video
    ID : 1
    Format : HEVC
    Format/Info : High Efficiency Video Coding
    Format profile : [email protected]@Main
    Codec ID : V_MPEGH/ISO/HEVC
    Duration : 1h 36mn
    Bit rate : 2 297 Kbps
    Width : 1 280 pixels
    Height : 534 pixels
    Display aspect ratio : 2.40:1
    Original display aspect ratio : 2.40:1
    Frame rate mode : Constant
    Frame rate : 23.976 (24000/1001) fps
    Color space : YUV
    Chroma subsampling : 4:2:0
    Bit depth : 8 bits
    Bits/(Pixel*Frame) : 0.140
    Stream size : 1.55 GiB (68%)
    Writing library : x265 1.9:[Windows][GCC 5.2.0][64 bit] 8bit
    Encoding settings : wpp / ctu=64 / min-cu-size=8 / max-tu-size=32 / tu-intra-depth=3 / tu-inter-depth=3 / me=2 / subme=4 / merange=57 / no-rect / no-amp / max-merge=3 / temporal-mvp / no-early-skip / rdpenalty=0 / no-tskip / no-tskip-fast / strong-intra-smoothing / no-lossless / no-cu-lossless / no-constrained-intra / fast-intra / open-gop / no-temporal-layers / interlace=0 / keyint=250 / min-keyint=23 / scenecut=40 / rc-lookahead=40 / lookahead-slices=0 / bframes=8 / bframe-bias=0 / b-adapt=2 / ref=5 / limit-refs=1 / limit-modes / weightp / weightb / aq-mode=1 / qg-size=32 / aq-strength=2.00 / cbqpoffs=0 / crqpoffs=0 / rd=4 / psy-rd=1.00 / rdoq-level=0 / psy-rdoq=0.00 / signhide / deblock=-1:-1 / sao / no-sao-non-deblock / b-pyramid / no-cutree / no-intra-refresh / rc=crf / crf=20.8 / qcomp=0.60 / qpmin=0 / qpmax=51 / qpstep=4 / vbv-maxrate=12000 / vbv-bufsize=12000 / crf-max=0.0 / ipratio=1.40 / pbratio=1.30
    Language : English
    Default : Yes
    Forced : No
    Color range : Limited
    Matrix coefficients : BT.709

    Audio #1
    ID : 2
    Format : AC-3
    Format/Info : Audio Coding 3
    Mode extension : CM (complete main)
    Format settings, Endianness : Big
    Codec ID : A_AC3
    Duration : 1h 36mn
    Bit rate mode : Constant
    Bit rate : 640 Kbps
    Channel(s) : 6 channels
    Channel positions : Front: L C R, Side: L R, LFE
    Sampling rate : 48.0 KHz
    Frame rate : 31.250 fps (1536 spf)
    Compression mode : Lossy
    Stream size : 443 MiB (19%)
    Title : AC3 5.1
    Language : Italian
    Default : Yes
    Forced : No

    Audio #2
    ID : 3
    Format : AC-3
    Format/Info : Audio Coding 3
    Mode extension : CM (complete main)
    Format settings, Endianness : Big
    Codec ID : A_AC3
    Duration : 1h 36mn
    Bit rate mode : Constant
    Bit rate : 448 Kbps
    Channel(s) : 6 channels
    Channel positions : Front: L C R, Side: L R, LFE
    Sampling rate : 48.0 KHz
    Frame rate : 31.250 fps (1536 spf)
    Compression mode : Lossy
    Stream size : 310 MiB (13%)
    Title : AC3 5.1
    Language : English
    Default : No
    Forced : No

    Text #1
    ID : 4
    Format : UTF-8
    Codec ID : S_TEXT/UTF8
    Codec ID/Info : UTF-8 Plain Text
    Duration : 1h 22mn
    Bit rate : 0 bps
    Count of elements : 20
    Stream size : 475 Bytes (0%)
    Title : Forced
    Language : Italian
    Default : Yes
    Forced : Yes

    Text #2
    ID : 5
    Format : UTF-8
    Codec ID : S_TEXT/UTF8
    Codec ID/Info : UTF-8 Plain Text
    Duration : 1h 32mn
    Bit rate : 29 bps
    Count of elements : 674
    Stream size : 20.2 KiB (0%)
    Title : Normal
    Language : Italian
    Default : No
    Forced : No

    Text #3
    ID : 6
    Format : UTF-8
    Codec ID : S_TEXT/UTF8
    Codec ID/Info : UTF-8 Plain Text
    Duration : 1h 32mn
    Bit rate : 27 bps
    Count of elements : 651
    Stream size : 18.7 KiB (0%)
    Title : Normal
    Language : English
    Default : No
    Forced : No

    Menu
    00:00:00.000 : en:Blood Sample
    00:07:51.304 : en:Earth's Demise
    00:14:04.552 : en:Klkb
    00:19:21.368 : en:Attack Animals
    00:25:23.939 : en:Experimental Workforce
    00:30:07.222 : en:Isolated
    00:35:08.189 : en:Deadly Territory
    00:41:51.091 : en:You Try
    00:47:07.241 : en:Securing the Perimeter
    00:53:41.468 : en:Storm's Coming
    01:00:53.941 : en:Activation Central
    01:07:58.532 : en:Desert Birds
    01:14:07.985 : en:Fiery Fight
    01:17:54.711 : en:Time for a Change
    01:23:39.013 : en:Saying Goodbye
    01:27:24.489 : en:Project Alice






    ** Contenuto Nascosto: Schiaccia il bottone RINGRAZIA per visualizzare i link **


    Password: W9uf3209bh0Ped970N
  2. 4 utenti hanno ringraziato PirateMKV per ci che ha scritto.

    cicopico (09.06.2016), Coby76 (03.02.2017), Desyre1994 (12.08.2016), pirata (20.05.2016)

Permessi di Scrittura

  • Tu non puoi inviare nuove discussioni
  • Tu non puoi inviare risposte
  • Tu non puoi inviare allegati
  • Tu non puoi modificare i tuoi messaggi
  •