HomePage - Come attivare il proprio account - Regole del Forum

HOT NEWS!!!

Resident Evil - Apocalypse (2004) BDRip 720p HEVC ITA ENG AC3 ITA ENG Sub PirateMKV

Rogue one-a Star Wars story (2016)


Rogue One A Star Wars Story è il primo capitolo di una nuova avventurosa serie cinematografica che esplora i personaggi e gli eventi che ruotano intorno alla saga di Guerre Stellari.


1080p
720p
UNTOUCHED-1080p
BLURAY FULL
BLURAY FULL 3D
Resident Evil - Apocalypse (2004) BDRip 720p HEVC ITA ENG AC3 ITA ENG Sub PirateMKV


Avviso a tutti i lettori di mondowarezz.Le sezioni Ebook,Quotidiani e Riviste.Sono momentaneamente chiuse.Vi preghiamo di non intasare la chatbox con le stesse domande.Grazie
Risultati da 1 a 1 di 1
  1. #1
    Status
    Offline
    L'avatar di PirateMKV
    Data Registrazione

    08.04.2015

    Messaggi

    2,781

    Ha ringraziato
    85 volte
    Ha Ricevuto 14,521 ringraziamenti in 2,508 discussioni volte
    Taggato
    1 Post(s)

    Resident Evil - Apocalypse (2004) BDRip 720p HEVC ITA ENG AC3 ITA ENG Sub PirateMKV






    Titolo: Resident Evil: Apocalypse
    Nazione: Germany, France, UK, Canada, USA
    Anno: 2004
    Genere: Action, Horror, Sci-Fi
    Durata: 94 min
    Regia: Alexander Witt
    Cast: Milla Jovovich, Sienna Guillory, Oded Fehr, Thomas Kretschmann


    Alice risvegliandosi da un sonno terribile, scopre che le sue peggiori paure si sono realizzate: gli Zombie sanguinari, che aveva combattuto insieme ad un'unità di soldati scelti, ora annientata, e cercato di sgominare una volta per tutte, si sono scatenati nella città che circonda la sede segreta della Umbrella Corporation. Come risultato di un esperimento dell'Umbrella, Alice ha subito una manipolazione biogenetica che l'ha dotata di poteri, sensi e abilità fuori del comune. Nel cuore di una Raccoon City spettrale, un piccolo gruppo di persone non infette, fra cui Jill Valentie e Carlos Oliveira, lotta per la vita contro orde di Zombie e degli ancora più veloci e letali Licker. Ormai a corto di fortuna e di risorse, il gruppo è tratto in salvo da Alice. Comincia allora una battaglia esaltante e disperata per sopravvivere e fuggire dalla città prima che l'Umbrella Corporation cancelli il proprio esperimento dalla faccia della terra...

    Nome Versione: PirateMKV
    Fonte Video: BluRay
    Fonte Audio: BluRay



     






     

    General
    Unique ID : 226204560219430301059108154324286543970 (0xAA2D69E23CB497BB81C4FE9A2C319862)
    Complete name : C:\Users\Administrator\Downloads\Resident Evil 2\Resident Evil - Apocalypse (2004) BDRip 720p HEVC ITA ENG AC3 ITA ENG Sub PirateMKV.mkv
    Format : Matroska
    Format version : Version 4 / Version 2
    File size : 2.80 GiB
    Duration : 1h 33mn
    Overall bit rate : 4 266 Kbps
    Movie name : Resident Evil: Apocalypse (2004) - PirateMKV
    Encoded date : UTC 2016-05-14 11:14:16
    Writing application : mkvmerge v9.1.0 ('Little Earthquakes') 64bit
    Writing library : libebml v1.3.3 libmatroska v1.4.4 / Lavf57.36.100

    Video
    ID : 1
    Format : HEVC
    Format/Info : High Efficiency Video Coding
    Format profile : [email protected]@Main
    Codec ID : V_MPEGH/ISO/HEVC
    Duration : 1h 33mn
    Bit rate : 3 175 Kbps
    Width : 1 280 pixels
    Height : 534 pixels
    Display aspect ratio : 2.40:1
    Original display aspect ratio : 2.40:1
    Frame rate mode : Constant
    Frame rate : 23.976 (24000/1001) fps
    Color space : YUV
    Chroma subsampling : 4:2:0
    Bit depth : 8 bits
    Bits/(Pixel*Frame) : 0.194
    Stream size : 2.08 GiB (74%)
    Writing library : x265 1.9:[Windows][GCC 5.2.0][64 bit] 8bit
    Encoding settings : wpp / ctu=64 / min-cu-size=8 / max-tu-size=32 / tu-intra-depth=3 / tu-inter-depth=3 / me=2 / subme=4 / merange=57 / no-rect / no-amp / max-merge=3 / temporal-mvp / no-early-skip / rdpenalty=0 / no-tskip / no-tskip-fast / strong-intra-smoothing / no-lossless / no-cu-lossless / no-constrained-intra / fast-intra / open-gop / no-temporal-layers / interlace=0 / keyint=250 / min-keyint=23 / scenecut=40 / rc-lookahead=40 / lookahead-slices=0 / bframes=8 / bframe-bias=0 / b-adapt=2 / ref=5 / limit-refs=3 / limit-modes / weightp / weightb / aq-mode=1 / qg-size=32 / aq-strength=2.00 / cbqpoffs=0 / crqpoffs=0 / rd=4 / psy-rd=1.00 / rdoq-level=0 / psy-rdoq=0.00 / signhide / deblock=-1:-1 / sao / no-sao-non-deblock / b-pyramid / no-cutree / no-intra-refresh / rc=crf / crf=20.8 / qcomp=0.60 / qpmin=0 / qpmax=51 / qpstep=4 / vbv-maxrate=12000 / vbv-bufsize=12000 / crf-max=0.0 / ipratio=1.40 / pbratio=1.30
    Language : English
    Default : Yes
    Forced : No
    Color range : Limited
    Matrix coefficients : BT.709

    Audio #1
    ID : 2
    Format : AC-3
    Format/Info : Audio Coding 3
    Mode extension : CM (complete main)
    Format settings, Endianness : Big
    Codec ID : A_AC3
    Duration : 1h 33mn
    Bit rate mode : Constant
    Bit rate : 448 Kbps
    Channel(s) : 6 channels
    Channel positions : Front: L C R, Side: L R, LFE
    Sampling rate : 48.0 KHz
    Frame rate : 31.250 fps (1536 spf)
    Compression mode : Lossy
    Stream size : 301 MiB (11%)
    Title : AC3 5.1
    Language : Italian
    Default : Yes
    Forced : No

    Audio #2
    ID : 3
    Format : AC-3
    Format/Info : Audio Coding 3
    Mode extension : CM (complete main)
    Format settings, Endianness : Big
    Codec ID : A_AC3
    Duration : 1h 33mn
    Bit rate mode : Constant
    Bit rate : 640 Kbps
    Channel(s) : 6 channels
    Channel positions : Front: L C R, Side: L R, LFE
    Sampling rate : 48.0 KHz
    Frame rate : 31.250 fps (1536 spf)
    Compression mode : Lossy
    Stream size : 429 MiB (15%)
    Title : AC3 5.1
    Language : English
    Default : No
    Forced : No

    Text #1
    ID : 4
    Format : UTF-8
    Codec ID : S_TEXT/UTF8
    Codec ID/Info : UTF-8 Plain Text
    Duration : 1h 17mn
    Bit rate : 2 bps
    Count of elements : 56
    Stream size : 1.56 KiB (0%)
    Title : Forced
    Language : Italian
    Default : Yes
    Forced : Yes

    Text #2
    ID : 5
    Format : UTF-8
    Codec ID : S_TEXT/UTF8
    Codec ID/Info : UTF-8 Plain Text
    Duration : 1h 27mn
    Bit rate : 31 bps
    Count of elements : 649
    Stream size : 20.1 KiB (0%)
    Title : Normal
    Language : English
    Default : No
    Forced : No

    Text #3
    ID : 6
    Format : UTF-8
    Codec ID : S_TEXT/UTF8
    Codec ID/Info : UTF-8 Plain Text
    Duration : 1h 27mn
    Bit rate : 34 bps
    Count of elements : 706
    Stream size : 22.3 KiB (0%)
    Title : Normal
    Language : Italian
    Default : No
    Forced : No

    Text #4
    ID : 7
    Format : UTF-8
    Codec ID : S_TEXT/UTF8
    Codec ID/Info : UTF-8 Plain Text
    Duration : 1h 28mn
    Bit rate : 35 bps
    Count of elements : 789
    Stream size : 23.0 KiB (0%)
    Title : SDH
    Language : English
    Default : No
    Forced : No

    Menu
    00:00:00.000 : en:00:00:00.000
    00:05:56.356 : en:00:05:56.356
    00:14:52.225 : en:00:14:52.225
    00:19:37.968 : en:00:19:37.968
    00:24:11.700 : en:00:24:11.700
    00:30:53.643 : en:00:30:53.643
    00:36:15.799 : en:00:36:15.799
    00:42:48.316 : en:00:42:48.316
    00:49:02.565 : en:00:49:02.565
    00:56:26.508 : en:00:56:26.508
    01:00:40.971 : en:01:00:40.971
    01:07:08.858 : en:01:07:08.858
    01:13:13.097 : en:01:13:13.097
    01:18:07.683 : en:01:18:07.683
    01:22:26.859 : en:01:22:26.859
    01:24:27.854 : en:01:24:27.854






    ** Contenuto Nascosto: Schiaccia il bottone RINGRAZIA per visualizzare i link **


    Password: W9uf3209bh0Ped970N
  2. 7 utenti hanno ringraziato PirateMKV per ciò che ha scritto.

    blackfix (30.09.2016), cicopico (09.06.2016), Coby76 (15.01.2017), darsce (2 Giorni Fa), Desyre1994 (12.08.2016), matozzo (1 Settimana Fa), pirata (20.05.2016)

Permessi di Scrittura

  • Tu non puoi inviare nuove discussioni
  • Tu non puoi inviare risposte
  • Tu non puoi inviare allegati
  • Tu non puoi modificare i tuoi messaggi
  •