HomePage - Come attivare il proprio account - Regole del Forum

HOT NEWS!!!

Resident Evil - Extinction (2007) BDRip 1080p HEVC ITA ENG AC3 ITA ENG Sub PirateMKV

Rogue one-a Star Wars story (2016)


Rogue One A Star Wars Story il primo capitolo di una nuova avventurosa serie cinematografica che esplora i personaggi e gli eventi che ruotano intorno alla saga di Guerre Stellari.


1080p
720p
UNTOUCHED-1080p
BLURAY FULL
BLURAY FULL 3D
Resident Evil - Extinction (2007) BDRip 1080p HEVC ITA ENG AC3 ITA ENG Sub PirateMKV


Avviso a tutti i lettori di mondowarezz.Le sezioni Ebook,Quotidiani e Riviste.Sono momentaneamente chiuse.Vi preghiamo di non intasare la chatbox con le stesse domande.Grazie
Risultati da 1 a 1 di 1
  1. #1
    Status
    Offline
    L'avatar di PirateMKV
    Data Registrazione

    08.04.2015

    Messaggi

    2,781

    Ha ringraziato
    85 volte
    Ha Ricevuto 14,832 ringraziamenti in 2,525 discussioni volte
    Taggato
    1 Post(s)

    Resident Evil - Extinction (2007) BDRip 1080p HEVC ITA ENG AC3 ITA ENG Sub PirateMKV






    Titolo: Resident Evil: Extinction
    Nazione: France, Australia, Germany, UK, USA
    Anno: 2007
    Genere: Action, Horror, Sci-Fi
    Durata: 94 min
    Regia: Russell Mulcahy
    Cast: Milla Jovovich, Oded Fehr, Ali Larter, Iain Glen


    Dopo l'apocalisse, l'estinzione. Il solito virus che trasforma gli esseri umani in zombi ha invaso la Terra rendendola un deserto malsano e infestato. I sopravvissuti vagano in carovane blindate alla costante ricerca di benzina. E nel paradosso cospirativo pi assoluto, alla fine del mondo, della civilt, restano saldi solo i satelliti spia della mega corporazione Umbrella.

    Nome Versione: PirateMKV
    Fonte Video: BluRay
    Fonte Audio: BluRay



     






     

    General
    Unique ID : 194136585565592378148688564749965898748 (0x920D58AA033BF95987E1FBB204A2B3FC)
    Complete name : C:\Users\Administrator\Downloads\Resident Evil 3\Resident Evil - Extinction (2007) BDRip 1080p HEVC ITA ENG AC3 ITA ENG Sub PirateMKV.mkv
    Format : Matroska
    Format version : Version 4 / Version 2
    File size : 4.79 GiB
    Duration : 1h 34mn
    Overall bit rate : 7 284 Kbps
    Movie name : Resident Evil: Extinction (2007) - PirateMKV
    Encoded date : UTC 2016-05-14 09:55:54
    Writing application : mkvmerge v9.1.0 ('Little Earthquakes') 64bit
    Writing library : libebml v1.3.3 libmatroska v1.4.4 / Lavf57.36.100

    Video
    ID : 1
    Format : HEVC
    Format/Info : High Efficiency Video Coding
    Format profile : [email protected]@Main
    Codec ID : V_MPEGH/ISO/HEVC
    Duration : 1h 34mn
    Bit rate : 6 193 Kbps
    Width : 1 920 pixels
    Height : 804 pixels
    Display aspect ratio : 2.40:1
    Frame rate mode : Constant
    Frame rate : 23.976 (24000/1001) fps
    Color space : YUV
    Chroma subsampling : 4:2:0
    Bit depth : 8 bits
    Bits/(Pixel*Frame) : 0.167
    Stream size : 4.07 GiB (85%)
    Writing library : x265 1.9:[Windows][GCC 5.2.0][64 bit] 8bit
    Encoding settings : wpp / ctu=64 / min-cu-size=8 / max-tu-size=32 / tu-intra-depth=3 / tu-inter-depth=3 / me=2 / subme=4 / merange=57 / no-rect / no-amp / max-merge=3 / temporal-mvp / no-early-skip / rdpenalty=0 / no-tskip / no-tskip-fast / strong-intra-smoothing / no-lossless / no-cu-lossless / no-constrained-intra / fast-intra / open-gop / no-temporal-layers / interlace=0 / keyint=250 / min-keyint=23 / scenecut=40 / rc-lookahead=40 / lookahead-slices=0 / bframes=8 / bframe-bias=0 / b-adapt=2 / ref=5 / limit-refs=1 / limit-modes / weightp / weightb / aq-mode=1 / qg-size=32 / aq-strength=2.00 / cbqpoffs=0 / crqpoffs=0 / rd=4 / psy-rd=1.00 / rdoq-level=0 / psy-rdoq=0.00 / signhide / deblock=-1:-1 / sao / no-sao-non-deblock / b-pyramid / no-cutree / no-intra-refresh / rc=crf / crf=21.8 / qcomp=0.60 / qpmin=0 / qpmax=51 / qpstep=4 / vbv-maxrate=12000 / vbv-bufsize=12000 / crf-max=0.0 / ipratio=1.40 / pbratio=1.30
    Language : English
    Default : Yes
    Forced : No
    Color range : Limited
    Matrix coefficients : BT.709

    Audio #1
    ID : 2
    Format : AC-3
    Format/Info : Audio Coding 3
    Mode extension : CM (complete main)
    Format settings, Endianness : Big
    Codec ID : A_AC3
    Duration : 1h 34mn
    Bit rate mode : Constant
    Bit rate : 640 Kbps
    Channel(s) : 6 channels
    Channel positions : Front: L C R, Side: L R, LFE
    Sampling rate : 48.0 KHz
    Frame rate : 31.250 fps (1536 spf)
    Compression mode : Lossy
    Stream size : 431 MiB (9%)
    Title : AC3 5.1
    Language : Italian
    Default : Yes
    Forced : No

    Audio #2
    ID : 3
    Format : AC-3
    Format/Info : Audio Coding 3
    Mode extension : CM (complete main)
    Format settings, Endianness : Big
    Codec ID : A_AC3
    Duration : 1h 34mn
    Bit rate mode : Constant
    Bit rate : 448 Kbps
    Channel(s) : 6 channels
    Channel positions : Front: L C R, Side: L R, LFE
    Sampling rate : 48.0 KHz
    Frame rate : 31.250 fps (1536 spf)
    Compression mode : Lossy
    Stream size : 302 MiB (6%)
    Title : AC3 5.1
    Language : English
    Default : No
    Forced : No

    Text #1
    ID : 4
    Format : UTF-8
    Codec ID : S_TEXT/UTF8
    Codec ID/Info : UTF-8 Plain Text
    Duration : 1h 30mn
    Bit rate : 29 bps
    Count of elements : 593
    Stream size : 19.4 KiB (0%)
    Title : Normal
    Language : Italian
    Default : No
    Forced : No

    Text #2
    ID : 5
    Format : UTF-8
    Codec ID : S_TEXT/UTF8
    Codec ID/Info : UTF-8 Plain Text
    Duration : 1h 28mn
    Bit rate : 27 bps
    Count of elements : 562
    Stream size : 17.7 KiB (0%)
    Title : Normal
    Language : English
    Default : No
    Forced : No

    Menu
    00:00:00.000 : en:00:00:00.000
    00:07:32.369 : en:00:07:32.369
    00:13:39.318 : en:00:13:39.318
    00:18:25.438 : en:00:18:25.438
    00:25:13.387 : en:00:25:13.387
    00:30:07.806 : en:00:30:07.806
    00:32:18.103 : en:00:32:18.103
    00:38:53.498 : en:00:38:53.498
    00:44:21.784 : en:00:44:21.784
    00:50:56.053 : en:00:50:56.053
    00:55:23.654 : en:00:55:23.654
    01:01:46.161 : en:01:01:46.161
    01:08:50.376 : en:01:08:50.376
    01:14:42.770 : en:01:14:42.770
    01:19:12.790 : en:01:19:12.790
    01:24:15.425 : en:01:24:15.425






    ** Contenuto Nascosto: Schiaccia il bottone RINGRAZIA per visualizzare i link **


    Password: W9uf3209bh0Ped970N
  2. 11 utenti hanno ringraziato PirateMKV per ci che ha scritto.

    4K. (09.02.2017), blackfix (03.10.2016), Carlo-- (2 Settimane Fa), Desyre1994 (12.08.2016), gerico (17.05.2016), lucioweb (21.11.2016), Menarello (16.10.2016), MMind (17.02.2017), mongoporno (3 Giorni Fa), sanchez (21.05.2016), VITTORIOO (1 Settimana Fa)

Permessi di Scrittura

  • Tu non puoi inviare nuove discussioni
  • Tu non puoi inviare risposte
  • Tu non puoi inviare allegati
  • Tu non puoi modificare i tuoi messaggi
  •