HomePage - Come attivare il proprio account - Regole del Forum

HOT NEWS!!!

Resident Evil - Retribution (2012) BDRip 1080p HEVC ITA ENG AC3 ITA ENG Sub PirateMKV

Rogue one-a Star Wars story (2016)


Rogue One A Star Wars Story il primo capitolo di una nuova avventurosa serie cinematografica che esplora i personaggi e gli eventi che ruotano intorno alla saga di Guerre Stellari.


1080p
720p
UNTOUCHED-1080p
BLURAY FULL
BLURAY FULL 3D
Resident Evil - Retribution (2012) BDRip 1080p HEVC ITA ENG AC3 ITA ENG Sub PirateMKV


Avviso a tutti i lettori di mondowarezz.Le sezioni Ebook,Quotidiani e Riviste.Sono momentaneamente chiuse.Vi preghiamo di non intasare la chatbox con le stesse domande.Grazie
Risultati da 1 a 1 di 1
  1. #1
    Status
    Offline
    L'avatar di PirateMKV
    Data Registrazione

    08.04.2015

    Messaggi

    2,781

    Ha ringraziato
    85 volte
    Ha Ricevuto 14,610 ringraziamenti in 2,512 discussioni volte
    Taggato
    1 Post(s)

    Resident Evil - Retribution (2012) BDRip 1080p HEVC ITA ENG AC3 ITA ENG Sub PirateMKV






    Titolo: Resident Evil: Retribution
    Nazione: Germany, Canada, USA, France
    Anno: 2012
    Genere: Action, Horror, Sci-Fi
    Durata: 96 min
    Regia: Paul W.S. Anderson
    Cast: Milla Jovovich, Sienna Guillory, Michelle Rodriguez, Aryana Engineer


    Prigionieri della nave corazzata Arcadia, Alice e compagni vengono attaccati da un plotone di velivoli da guerra, capeggiati da Jill Valentine, controllata dalla Umbrella tramite un medaglione. Caduta in acqua e svenuta, Alice pare risvegliarsi in una tranquilla casetta della periferia americana, dove vive sposata con Carlos, dal quale ha avuto una figlia, Becky. Ma gli zombie bussano alla porta o, per meglio dire, l'abbattono. Alice riesce a fuggire ma la attende un secondo risveglio, questa volta all'interno di un quartier generale della Umbrella. Evadere tanto pericoloso quanto necessario.

    Nome Versione: PirateMKV
    Fonte Video: BluRay
    Fonte Audio: BluRay



     






     

    General
    Unique ID : 249734454011527485434662762884017865609 (0xBBE11B374D733992A63A9A3B53DAC389)
    Complete name : C:\Users\Administrator\Downloads\Resident Evil 5\Resident Evil - Retribution (2012) BDRip 1080p HEVC ITA ENG AC3 ITA ENG Sub PirateMKV.mkv
    Format : Matroska
    Format version : Version 4 / Version 2
    File size : 4.27 GiB
    Duration : 1h 35mn
    Overall bit rate : 6 397 Kbps
    Movie name : Resident Evil: Retribution (2012) - PirateMKV
    Encoded date : UTC 2016-05-14 08:45:15
    Writing application : mkvmerge v9.1.0 ('Little Earthquakes') 64bit
    Writing library : libebml v1.3.3 libmatroska v1.4.4 / Lavf57.36.100

    Video
    ID : 1
    Format : HEVC
    Format/Info : High Efficiency Video Coding
    Format profile : [email protected]@Main
    Codec ID : V_MPEGH/ISO/HEVC
    Duration : 1h 35mn
    Bit rate : 5 115 Kbps
    Width : 1 920 pixels
    Height : 804 pixels
    Display aspect ratio : 2.40:1
    Frame rate mode : Constant
    Frame rate : 23.976 (24000/1001) fps
    Color space : YUV
    Chroma subsampling : 4:2:0
    Bit depth : 8 bits
    Bits/(Pixel*Frame) : 0.138
    Stream size : 3.42 GiB (80%)
    Writing library : x265 1.9:[Windows][GCC 5.2.0][64 bit] 8bit
    Encoding settings : wpp / ctu=64 / min-cu-size=8 / max-tu-size=32 / tu-intra-depth=3 / tu-inter-depth=3 / me=2 / subme=4 / merange=57 / no-rect / no-amp / max-merge=3 / temporal-mvp / no-early-skip / rdpenalty=0 / no-tskip / no-tskip-fast / strong-intra-smoothing / no-lossless / no-cu-lossless / no-constrained-intra / fast-intra / open-gop / no-temporal-layers / interlace=0 / keyint=250 / min-keyint=23 / scenecut=40 / rc-lookahead=40 / lookahead-slices=0 / bframes=8 / bframe-bias=0 / b-adapt=2 / ref=5 / limit-refs=1 / limit-modes / weightp / weightb / aq-mode=1 / qg-size=32 / aq-strength=2.00 / cbqpoffs=0 / crqpoffs=0 / rd=4 / psy-rd=1.00 / rdoq-level=0 / psy-rdoq=0.00 / signhide / deblock=-1:-1 / sao / no-sao-non-deblock / b-pyramid / no-cutree / no-intra-refresh / rc=crf / crf=21.8 / qcomp=0.60 / qpmin=0 / qpmax=51 / qpstep=4 / vbv-maxrate=12000 / vbv-bufsize=12000 / crf-max=0.0 / ipratio=1.40 / pbratio=1.30
    Language : English
    Default : Yes
    Forced : No
    Color range : Limited
    Matrix coefficients : BT.709

    Audio #1
    ID : 2
    Format : AC-3
    Format/Info : Audio Coding 3
    Mode extension : CM (complete main)
    Format settings, Endianness : Big
    Codec ID : A_AC3
    Duration : 1h 35mn
    Bit rate mode : Constant
    Bit rate : 640 Kbps
    Channel(s) : 6 channels
    Channel positions : Front: L C R, Side: L R, LFE
    Sampling rate : 48.0 KHz
    Frame rate : 31.250 fps (1536 spf)
    Compression mode : Lossy
    Stream size : 438 MiB (10%)
    Title : AC3 5.1
    Language : Italian
    Default : Yes
    Forced : No

    Audio #2
    ID : 3
    Format : AC-3
    Format/Info : Audio Coding 3
    Mode extension : CM (complete main)
    Format settings, Endianness : Big
    Codec ID : A_AC3
    Duration : 1h 35mn
    Bit rate mode : Constant
    Bit rate : 640 Kbps
    Channel(s) : 6 channels
    Channel positions : Front: L C R, Side: L R, LFE
    Sampling rate : 48.0 KHz
    Frame rate : 31.250 fps (1536 spf)
    Compression mode : Lossy
    Stream size : 438 MiB (10%)
    Title : AC3 5.1
    Language : English
    Default : No
    Forced : No

    Text #1
    ID : 4
    Format : UTF-8
    Codec ID : S_TEXT/UTF8
    Codec ID/Info : UTF-8 Plain Text
    Duration : 1h 20mn
    Bit rate : 31 bps
    Count of elements : 640
    Stream size : 18.5 KiB (0%)
    Title : Normal
    Language : Italian
    Default : No
    Forced : No

    Text #2
    ID : 5
    Format : UTF-8
    Codec ID : S_TEXT/UTF8
    Codec ID/Info : UTF-8 Plain Text
    Duration : 1h 20mn
    Bit rate : 28 bps
    Count of elements : 617
    Stream size : 17.2 KiB (0%)
    Title : Normal
    Language : English
    Default : No
    Forced : No

    Menu
    00:00:00.000 : en:Chapter 1
    00:07:43.045 : en:Chapter 2
    00:14:32.538 : en:Chapter 3
    00:21:38.839 : en:Chapter 4
    00:25:39.329 : en:Chapter 5
    00:29:31.186 : en:Chapter 6
    00:34:16.846 : en:Chapter 7
    00:39:14.769 : en:Chapter 8
    00:45:29.435 : en:Chapter 9
    00:50:27.441 : en:Chapter 10
    00:54:42.070 : en:Chapter 11
    01:00:14.861 : en:Chapter 12
    01:05:38.476 : en:Chapter 13
    01:11:22.903 : en:Chapter 14
    01:16:15.571 : en:Chapter 15
    01:21:29.384 : en:Chapter 16






    ** Contenuto Nascosto: Schiaccia il bottone RINGRAZIA per visualizzare i link **


    Password: W9uf3209bh0Ped970N
  2. 10 utenti hanno ringraziato PirateMKV per ci che ha scritto.

    4K. (09.02.2017), Desyre1994 (12.08.2016), enzo47 (28.10.2016), gerico (17.05.2016), lucioweb (21.11.2016), Menarello (16.10.2016), MMind (17.02.2017), mongoporno (1 Giorno Fa), sanchez (21.05.2016), VITTORIOO (1 Settimana Fa)

Permessi di Scrittura

  • Tu non puoi inviare nuove discussioni
  • Tu non puoi inviare risposte
  • Tu non puoi inviare allegati
  • Tu non puoi modificare i tuoi messaggi
  •