HomePage - Come attivare il proprio account - Regole del Forum

HOT NEWS!!!

Rocky - 4K Remastered (1976) BDRip 720p HEVC ITA ENG AC3 ITA ENG Sub PirateMKV

Rogue one-a Star Wars story (2016)


Rogue One A Star Wars Story è il primo capitolo di una nuova avventurosa serie cinematografica che esplora i personaggi e gli eventi che ruotano intorno alla saga di Guerre Stellari.


1080p
720p
UNTOUCHED-1080p
BLURAY FULL
BLURAY FULL 3D
Rocky - 4K Remastered (1976) BDRip 720p HEVC ITA ENG AC3 ITA ENG Sub PirateMKV


Avviso a tutti i lettori di mondowarezz.Le sezioni Ebook,Quotidiani e Riviste.Sono momentaneamente chiuse.Vi preghiamo di non intasare la chatbox con le stesse domande.Grazie
Risultati da 1 a 1 di 1
  1. #1
    Status
    Offline
    L'avatar di PirateMKV
    Data Registrazione

    08.04.2015

    Messaggi

    2,781

    Ha ringraziato
    85 volte
    Ha Ricevuto 14,379 ringraziamenti in 2,506 discussioni volte
    Taggato
    1 Post(s)

    Rocky - 4K Remastered (1976) BDRip 720p HEVC ITA ENG AC3 ITA ENG Sub PirateMKV






    Titolo: Rocky
    Nazione: USA
    Anno: 1976
    Genere: Drama, Sport
    Durata: 120 min
    Regia: John G. Avildsen
    Cast: Sylvester Stallone, Talia Shire, Burt Young, Carl Weathers


    Rocky Balboa, ventottenne di Filadelfia, vivacchia riscuotendo i crediti di un usuraio italo-americano e vincendo ogni tanto qualche modesto incontro di boxe (la sua passione, e la sola cosa che sappia fare). Innamorato di Adriana, timida sorella di un ubriacone, una sera scopre, vinta la sua ritrosia, che anche lei gli vuol bene. Intanto, il campione del mondo dei pesi massimi, Apollo Creed, venutogli a mancare uno sfidante degno di lui, ha un'astuta trovata per non perdere i soldi puntati su quell'incontro e guadagnarne molti altri: organizza, mascherandosi col mito dell'America "terra delle opportunità di sfondare" offerte a chiunque, un "match" con un pugile bianco alle prime armi. La sua scelta cade su Rocky, lo "stallone italiano" (così si è autodefinito, per ragioni pubblicitarie). Balboa, cui andrà una "borsa" di centocinquantamila dollari, accetta la sfida. Si allena duramente, proponendosi soltanto, però, non di vincere l'incontro, ma di combattere - e sarebbe la prima volta, con Creed - tutte e quindici le riprese, senza cadere al tappeto. Mantiene la parola ed è salutato come un grande campione, anche da Apollo. Ciò che gli preme davvero, tuttavia, è l'amore di Adriana.

    Nome Versione: PirateMKV
    Fonte Video: BluRay
    Fonte Audio: BluRay



     






     

    General
    Unique ID : 243378449966240962570024033714676965635 (0xB718FC05A06198D8B68CE5832BDC2103)
    Complete name : C:\Users\Administrator\Downloads\Rocky 1\Rocky (1976) BDRip 720p HEVC ITA ENG AC3 ITA ENG Sub PirateMKV.mkv
    Format : Matroska
    Format version : Version 4 / Version 2
    File size : 4.23 GiB
    Duration : 1h 59mn
    Overall bit rate : 5 055 Kbps
    Movie name : Rocky (1976) - PirateMKV
    Encoded date : UTC 2016-05-03 17:07:55
    Writing application : mkvmerge v9.1.0 ('Little Earthquakes') 64bit
    Writing library : libebml v1.3.3 libmatroska v1.4.4 / Lavf57.34.103

    Video
    ID : 1
    Format : HEVC
    Format/Info : High Efficiency Video Coding
    Format profile : [email protected]@Main
    Codec ID : V_MPEGH/ISO/HEVC
    Duration : 1h 59mn
    Bit rate : 3 772 Kbps
    Width : 1 280 pixels
    Height : 692 pixels
    Display aspect ratio : 1.85:1
    Frame rate mode : Constant
    Frame rate : 23.976 (24000/1001) fps
    Color space : YUV
    Chroma subsampling : 4:2:0
    Bit depth : 8 bits
    Bits/(Pixel*Frame) : 0.178
    Stream size : 3.15 GiB (75%)
    Writing library : x265 1.9:[Windows][GCC 5.2.0][64 bit] 8bit
    Encoding settings : wpp / ctu=64 / min-cu-size=8 / max-tu-size=32 / tu-intra-depth=3 / tu-inter-depth=3 / me=2 / subme=4 / merange=57 / no-rect / no-amp / max-merge=3 / temporal-mvp / no-early-skip / rdpenalty=0 / no-tskip / no-tskip-fast / strong-intra-smoothing / no-lossless / no-cu-lossless / no-constrained-intra / fast-intra / open-gop / no-temporal-layers / interlace=0 / keyint=250 / min-keyint=23 / scenecut=40 / rc-lookahead=40 / lookahead-slices=0 / bframes=8 / bframe-bias=0 / b-adapt=2 / ref=5 / limit-refs=1 / limit-modes / weightp / weightb / aq-mode=1 / qg-size=32 / aq-strength=2.00 / cbqpoffs=0 / crqpoffs=0 / rd=4 / psy-rd=1.00 / rdoq-level=0 / psy-rdoq=0.00 / signhide / deblock=-1:-1 / sao / no-sao-non-deblock / b-pyramid / no-cutree / no-intra-refresh / rc=crf / crf=21.5 / qcomp=0.60 / qpmin=0 / qpmax=51 / qpstep=4 / vbv-maxrate=12000 / vbv-bufsize=12000 / crf-max=0.0 / ipratio=1.40 / pbratio=1.30
    Default : Yes
    Forced : No
    Color range : Limited
    Matrix coefficients : BT.709

    Audio #1
    ID : 2
    Format : AC-3
    Format/Info : Audio Coding 3
    Mode extension : CM (complete main)
    Format settings, Endianness : Big
    Codec ID : A_AC3
    Duration : 1h 59mn
    Bit rate mode : Constant
    Bit rate : 640 Kbps
    Channel(s) : 6 channels
    Channel positions : Front: L C R, Side: L R, LFE
    Sampling rate : 48.0 KHz
    Frame rate : 31.250 fps (1536 spf)
    Compression mode : Lossy
    Stream size : 548 MiB (13%)
    Title : AC3 5.1
    Language : Italian
    Default : Yes
    Forced : No

    Audio #2
    ID : 3
    Format : AC-3
    Format/Info : Audio Coding 3
    Mode extension : CM (complete main)
    Format settings, Endianness : Big
    Codec ID : A_AC3
    Duration : 1h 59mn
    Bit rate mode : Constant
    Bit rate : 640 Kbps
    Channel(s) : 6 channels
    Channel positions : Front: L C R, Side: L R, LFE
    Sampling rate : 48.0 KHz
    Frame rate : 31.250 fps (1536 spf)
    Compression mode : Lossy
    Stream size : 548 MiB (13%)
    Title : AC3 5.1
    Language : English
    Default : No
    Forced : No

    Text #1
    ID : 4
    Format : UTF-8
    Codec ID : S_TEXT/UTF8
    Codec ID/Info : UTF-8 Plain Text
    Duration : 1h 58mn
    Bit rate : 0 bps
    Count of elements : 13
    Stream size : 405 Bytes (0%)
    Title : Forced
    Language : Italian
    Default : Yes
    Forced : Yes

    Text #2
    ID : 5
    Format : UTF-8
    Codec ID : S_TEXT/UTF8
    Codec ID/Info : UTF-8 Plain Text
    Duration : 1h 58mn
    Bit rate : 64 bps
    Count of elements : 1619
    Stream size : 56.5 KiB (0%)
    Title : Normal
    Language : Italian
    Default : No
    Forced : No

    Text #3
    ID : 6
    Format : UTF-8
    Codec ID : S_TEXT/UTF8
    Codec ID/Info : UTF-8 Plain Text
    Duration : 1h 56mn
    Bit rate : 71 bps
    Count of elements : 1695
    Stream size : 61.3 KiB (0%)
    Title : SDH
    Language : English
    Default : No
    Forced : No

    Menu
    00:00:00.000 : en:00:00:00.000
    00:07:24.694 : en:00:07:24.694
    00:11:53.880 : en:00:11:53.880
    00:16:28.154 : en:00:16:28.154
    00:22:21.966 : en:00:22:21.966
    00:26:06.440 : en:00:26:06.440
    00:33:01.980 : en:00:33:01.980
    00:34:03.959 : en:00:34:03.959
    00:40:17.498 : en:00:40:17.498
    00:47:40.107 : en:00:47:40.107
    00:55:03.175 : en:00:55:03.175
    00:57:29.613 : en:00:57:29.613
    01:02:44.010 : en:01:02:44.010
    01:10:47.952 : en:01:10:47.952
    01:17:42.241 : en:01:17:42.241
    01:19:21.674 : en:01:19:21.674
    01:22:10.050 : en:01:22:10.050
    01:25:29.249 : en:01:25:29.249
    01:29:22.107 : en:01:29:22.107
    01:34:24.659 : en:01:34:24.659
    01:39:30.381 : en:01:39:30.381
    01:47:16.930 : en:01:47:16.930
    01:48:40.305 : en:01:48:40.305
    01:54:45.837 : en:01:54:45.837






    ** Contenuto Nascosto: Schiaccia il bottone RINGRAZIA per visualizzare i link **


    Password: W9uf3209bh0Ped970N
  2. 5 utenti hanno ringraziato PirateMKV per ciò che ha scritto.

    guvisa (16.11.2016), keijimaeda2013 (23.11.2016), Lorys_1975 (23.08.2016), oldnicola (24.11.2016), smegma75 (08.08.2016)

Permessi di Scrittura

  • Tu non puoi inviare nuove discussioni
  • Tu non puoi inviare risposte
  • Tu non puoi inviare allegati
  • Tu non puoi modificare i tuoi messaggi
  •