HomePage - Come attivare il proprio account - Regole del Forum

HOT NEWS!!!

Rocky II (1979) BDRip 1080p HEVC ITA ENG AC3 ITA ENG Sub PirateMKV

Passengers (2016)


Durante un viaggio verso una nuova casa su un altro pianeta, due passeggeri vengono svegliati 90 anni prima del previsto per un guasto della nave spaziale.


1080p
720p
UNTOUCHED-1080p
BLURAY FULL
BLURAY FULL 3D
Rocky II (1979) BDRip 1080p HEVC ITA ENG AC3 ITA ENG Sub PirateMKV


Avviso a tutti i lettori di mondowarezz.Le sezioni Ebook,Quotidiani e Riviste.Sono momentaneamente chiuse.Vi preghiamo di non intasare la chatbox con le stesse domande.Grazie
Risultati da 1 a 1 di 1
  1. #1
    Status
    Offline
    L'avatar di PirateMKV
    Data Registrazione

    08.04.2015

    Messaggi

    2,781

    Ha ringraziato
    85 volte
    Ha Ricevuto 14,282 ringraziamenti in 2,503 discussioni volte
    Taggato
    1 Post(s)

    Rocky II (1979) BDRip 1080p HEVC ITA ENG AC3 ITA ENG Sub PirateMKV






    Titolo: Rocky II
    Nazione: USA
    Anno: 1979
    Genere: Drama, Sport
    Durata: 119 min
    Regia: Sylvester Stallone
    Cast: Sylvester Stallone, Talia Shire, Burt Young, Carl Weathers


    Rocky Balboa finisce in piedi un incontro con Apollo Creed, campione mondiale dei pesi massimi. Essendo rimasto malconcio al naso e all'occhio sinistro, Rocky accetta i consigli dell'anziano suo allenatore Michey; annuncia il ritiro dalla boxe; sposa Adriana e investe nella casa i soldi della pingue borsa ottenuta. La moglie lo rende felice generando un figlio. Rocky costretto a cercare un lavoro fisso e accetta favori umilianti e poco redditizi. Della situazione intende approfittare Apollo Creed che, raggiunto ormai il nome di "campione dei campioni", sente pesare sulla propria fama il neo del discusso verdetto di un anno prima. Sicuro anche che Rocky ormai distrutto moralmente e fisicamente, oltre che in completa assenza di allenamenti, lo provoca a un incontro nel quale sicuro di demolirlo definitivamente.

    Nome Versione: PirateMKV
    Fonte Video: BluRay
    Fonte Audio: BluRay



     






     

    General
    Unique ID : 217820846512003620699235706758059115942 (0xA3DEC4E27CCA2D35BD91AB1DCDD1C5A6)
    Complete name : C:\Users\Administrator\Downloads\Rocky 2\Rocky II (1979) BDRip 1080p HEVC ITA ENG AC3 ITA ENG Sub PirateMKV.mkv
    Format : Matroska
    Format version : Version 4 / Version 2
    File size : 9.06 GiB
    Duration : 1h 59mn
    Overall bit rate : 10.9 Mbps
    Movie name : Rocky II (1979) - PirateMKV
    Encoded date : UTC 2016-05-03 17:13:36
    Writing application : mkvmerge v9.1.0 ('Little Earthquakes') 64bit
    Writing library : libebml v1.3.3 libmatroska v1.4.4 / Lavf57.34.103

    Video
    ID : 1
    Format : HEVC
    Format/Info : High Efficiency Video Coding
    Format profile : [email protected]@Main
    Codec ID : V_MPEGH/ISO/HEVC
    Duration : 1h 59mn
    Bit rate : 9 605 Kbps
    Width : 1 920 pixels
    Height : 1 040 pixels
    Display aspect ratio : 1.85:1
    Frame rate mode : Constant
    Frame rate : 23.976 (24000/1001) fps
    Color space : YUV
    Chroma subsampling : 4:2:0
    Bit depth : 8 bits
    Bits/(Pixel*Frame) : 0.201
    Stream size : 8.00 GiB (88%)
    Writing library : x265 1.9:[Windows][GCC 5.2.0][64 bit] 8bit
    Encoding settings : wpp / ctu=64 / min-cu-size=8 / max-tu-size=32 / tu-intra-depth=3 / tu-inter-depth=3 / me=2 / subme=4 / merange=57 / no-rect / no-amp / max-merge=3 / temporal-mvp / no-early-skip / rdpenalty=0 / no-tskip / no-tskip-fast / strong-intra-smoothing / no-lossless / no-cu-lossless / no-constrained-intra / fast-intra / open-gop / no-temporal-layers / interlace=0 / keyint=250 / min-keyint=23 / scenecut=40 / rc-lookahead=40 / lookahead-slices=0 / bframes=8 / bframe-bias=0 / b-adapt=2 / ref=4 / limit-refs=1 / limit-modes / weightp / weightb / aq-mode=1 / qg-size=32 / aq-strength=2.00 / cbqpoffs=0 / crqpoffs=0 / rd=4 / psy-rd=1.00 / rdoq-level=0 / psy-rdoq=0.00 / signhide / deblock=-1:-1 / sao / no-sao-non-deblock / b-pyramid / no-cutree / no-intra-refresh / rc=crf / crf=22.5 / qcomp=0.60 / qpmin=0 / qpmax=51 / qpstep=4 / vbv-maxrate=12000 / vbv-bufsize=12000 / crf-max=0.0 / ipratio=1.40 / pbratio=1.30
    Default : Yes
    Forced : No
    Color range : Limited
    Matrix coefficients : BT.709

    Audio #1
    ID : 2
    Format : AC-3
    Format/Info : Audio Coding 3
    Mode extension : CM (complete main)
    Format settings, Endianness : Big
    Codec ID : A_AC3
    Duration : 1h 59mn
    Bit rate mode : Constant
    Bit rate : 640 Kbps
    Channel(s) : 6 channels
    Channel positions : Front: L C R, Side: L R, LFE
    Sampling rate : 48.0 KHz
    Frame rate : 31.250 fps (1536 spf)
    Compression mode : Lossy
    Stream size : 546 MiB (6%)
    Title : AC3 5.1
    Language : Italian
    Default : Yes
    Forced : No

    Audio #2
    ID : 3
    Format : AC-3
    Format/Info : Audio Coding 3
    Mode extension : CM (complete main)
    Format settings, Endianness : Big
    Codec ID : A_AC3
    Duration : 1h 59mn
    Bit rate mode : Constant
    Bit rate : 640 Kbps
    Channel(s) : 6 channels
    Channel positions : Front: L C R, Side: L R, LFE
    Sampling rate : 48.0 KHz
    Frame rate : 31.250 fps (1536 spf)
    Compression mode : Lossy
    Stream size : 546 MiB (6%)
    Title : AC3 5.1
    Language : English
    Default : No
    Forced : No

    Text #1
    ID : 4
    Format : UTF-8
    Codec ID : S_TEXT/UTF8
    Codec ID/Info : UTF-8 Plain Text
    Duration : 1h 34mn
    Bit rate : 0 bps
    Count of elements : 14
    Stream size : 662 Bytes (0%)
    Title : Forced
    Language : Italian
    Default : Yes
    Forced : Yes

    Text #2
    ID : 5
    Format : UTF-8
    Codec ID : S_TEXT/UTF8
    Codec ID/Info : UTF-8 Plain Text
    Duration : 1h 58mn
    Bit rate : 60 bps
    Count of elements : 1336
    Stream size : 52.4 KiB (0%)
    Title : Normal
    Language : Italian
    Default : No
    Forced : No

    Text #3
    ID : 6
    Format : UTF-8
    Codec ID : S_TEXT/UTF8
    Codec ID/Info : UTF-8 Plain Text
    Duration : 1h 55mn
    Bit rate : 83 bps
    Count of elements : 1939
    Stream size : 70.6 KiB (0%)
    Title : SDH
    Language : English
    Default : No
    Forced : No

    Menu
    00:00:00.000 : en:00:00:00.000
    00:07:50.053 : en:00:07:50.053
    00:14:07.013 : en:00:14:07.013
    00:22:02.905 : en:00:22:02.905
    00:29:24.513 : en:00:29:24.513
    00:40:48.905 : en:00:40:48.905
    00:49:56.452 : en:00:49:56.452
    01:01:53.668 : en:01:01:53.668
    01:04:21.524 : en:01:04:21.524
    01:12:01.734 : en:01:12:01.734
    01:17:00.574 : en:01:17:00.574
    01:26:27.766 : en:01:26:27.766
    01:32:41.097 : en:01:32:41.097
    01:41:27.540 : en:01:41:27.540
    01:51:54.541 : en:01:51:54.541
    01:54:41.291 : en:01:54:41.291






    ** Contenuto Nascosto: Schiaccia il bottone RINGRAZIA per visualizzare i link **


    Password: W9uf3209bh0Ped970N
  2. 9 utenti hanno ringraziato PirateMKV per ci che ha scritto.

    4K. (09.02.2017), adb80 (4 Giorni Fa), chochobo (19.06.2016), claval75 (28.08.2016), gerico (14.05.2016), ivanverona1 (1 Settimana Fa), Menarello (16.10.2016), mongoporno (2 Giorni Fa), webmagut (25.10.2016)

Permessi di Scrittura

  • Tu non puoi inviare nuove discussioni
  • Tu non puoi inviare risposte
  • Tu non puoi inviare allegati
  • Tu non puoi modificare i tuoi messaggi
  •