HomePage - Come attivare il proprio account - Regole del Forum

HOT NEWS!!!

Rocky III (1982) BDRip 1080p HEVC ITA ENG AC3 ITA ENG Sub PirateMKV

Passengers (2016)


Durante un viaggio verso una nuova casa su un altro pianeta, due passeggeri vengono svegliati 90 anni prima del previsto per un guasto della nave spaziale.


1080p
720p
UNTOUCHED-1080p
BLURAY FULL
BLURAY FULL 3D
Rocky III (1982) BDRip 1080p HEVC ITA ENG AC3 ITA ENG Sub PirateMKV


Avviso a tutti i lettori di mondowarezz.Le sezioni Ebook,Quotidiani e Riviste.Sono momentaneamente chiuse.Vi preghiamo di non intasare la chatbox con le stesse domande.Grazie
Risultati da 1 a 1 di 1
  1. #1
    Status
    Offline
    L'avatar di PirateMKV
    Data Registrazione

    08.04.2015

    Messaggi

    2,781

    Ha ringraziato
    85 volte
    Ha Ricevuto 14,297 ringraziamenti in 2,505 discussioni volte
    Taggato
    1 Post(s)

    Rocky III (1982) BDRip 1080p HEVC ITA ENG AC3 ITA ENG Sub PirateMKV






    Titolo: Rocky III
    Nazione: USA
    Anno: 1982
    Genere: Drama, Sport
    Durata: 99 min
    Regia: Sylvester Stallone
    Cast: Sylvester Stallone, Talia Shire, Burt Young, Carl Weathers


    In Rocky II avevamo visto il pugile conquistare il campionato del mondo dei pesi massimi dopo la vittoria su Apollo Creed; qui lo ritroviamo sempre pi trionfante e ormai trasformato in un uomo di spettacolo. Ma la sonora sconfitta inflittagli da un gigantesco rivale e la morte del suo vecchio manager riportano Rocky con i piedi per terra.

    Nome Versione: PirateMKV
    Fonte Video: BluRay
    Fonte Audio: BluRay



     






     

    General
    Unique ID : 247248835261434762951865210574258180595 (0xBA0264BFFCA03C5690ECA2EC9D4E11F3)
    Complete name : C:\Users\Administrator\Downloads\Rocky 3\Rocky III (1982) BDRip 1080p HEVC ITA ENG AC3 ITA ENG Sub PirateMKV.mkv
    Format : Matroska
    Format version : Version 4 / Version 2
    File size : 7.65 GiB
    Duration : 1h 39mn
    Overall bit rate : 11.0 Mbps
    Movie name : Rocky III (1982) - PirateMKV
    Encoded date : UTC 2016-05-03 17:17:21
    Writing application : mkvmerge v9.1.0 ('Little Earthquakes') 64bit
    Writing library : libebml v1.3.3 libmatroska v1.4.4 / Lavf57.34.103

    Video
    ID : 1
    Format : HEVC
    Format/Info : High Efficiency Video Coding
    Format profile : [email protected]@Main
    Codec ID : V_MPEGH/ISO/HEVC
    Duration : 1h 39mn
    Bit rate : 9 715 Kbps
    Width : 1 920 pixels
    Height : 1 040 pixels
    Display aspect ratio : 1.85:1
    Frame rate mode : Constant
    Frame rate : 23.976 (24000/1001) fps
    Color space : YUV
    Chroma subsampling : 4:2:0
    Bit depth : 8 bits
    Bits/(Pixel*Frame) : 0.203
    Stream size : 6.76 GiB (88%)
    Writing library : x265 1.9:[Windows][GCC 5.2.0][64 bit] 8bit
    Encoding settings : wpp / ctu=64 / min-cu-size=8 / max-tu-size=32 / tu-intra-depth=3 / tu-inter-depth=3 / me=2 / subme=4 / merange=57 / no-rect / no-amp / max-merge=3 / temporal-mvp / no-early-skip / rdpenalty=0 / no-tskip / no-tskip-fast / strong-intra-smoothing / no-lossless / no-cu-lossless / no-constrained-intra / fast-intra / open-gop / no-temporal-layers / interlace=0 / keyint=250 / min-keyint=23 / scenecut=40 / rc-lookahead=40 / lookahead-slices=0 / bframes=8 / bframe-bias=0 / b-adapt=2 / ref=4 / limit-refs=1 / limit-modes / weightp / weightb / aq-mode=1 / qg-size=32 / aq-strength=2.00 / cbqpoffs=0 / crqpoffs=0 / rd=4 / psy-rd=1.00 / rdoq-level=0 / psy-rdoq=0.00 / signhide / deblock=-1:-1 / sao / no-sao-non-deblock / b-pyramid / no-cutree / no-intra-refresh / rc=crf / crf=22.5 / qcomp=0.60 / qpmin=0 / qpmax=51 / qpstep=4 / vbv-maxrate=12000 / vbv-bufsize=12000 / crf-max=0.0 / ipratio=1.40 / pbratio=1.30
    Default : Yes
    Forced : No
    Color range : Limited
    Matrix coefficients : BT.709

    Audio #1
    ID : 2
    Format : AC-3
    Format/Info : Audio Coding 3
    Mode extension : CM (complete main)
    Format settings, Endianness : Big
    Codec ID : A_AC3
    Duration : 1h 39mn
    Bit rate mode : Constant
    Bit rate : 640 Kbps
    Channel(s) : 6 channels
    Channel positions : Front: L C R, Side: L R, LFE
    Sampling rate : 48.0 KHz
    Frame rate : 31.250 fps (1536 spf)
    Compression mode : Lossy
    Stream size : 456 MiB (6%)
    Title : AC3 5.1
    Language : Italian
    Default : Yes
    Forced : No

    Audio #2
    ID : 3
    Format : AC-3
    Format/Info : Audio Coding 3
    Mode extension : CM (complete main)
    Format settings, Endianness : Big
    Codec ID : A_AC3
    Duration : 1h 39mn
    Bit rate mode : Constant
    Bit rate : 640 Kbps
    Channel(s) : 6 channels
    Channel positions : Front: L C R, Side: L R, LFE
    Sampling rate : 48.0 KHz
    Frame rate : 31.250 fps (1536 spf)
    Compression mode : Lossy
    Stream size : 456 MiB (6%)
    Title : AC3 5.1
    Language : English
    Default : No
    Forced : No

    Text #1
    ID : 4
    Format : UTF-8
    Codec ID : S_TEXT/UTF8
    Codec ID/Info : UTF-8 Plain Text
    Duration : 51mn 19s
    Bit rate : 0 bps
    Count of elements : 9
    Stream size : 307 Bytes (0%)
    Title : Forced
    Language : Italian
    Default : Yes
    Forced : Yes

    Text #2
    ID : 5
    Format : UTF-8
    Codec ID : S_TEXT/UTF8
    Codec ID/Info : UTF-8 Plain Text
    Duration : 1h 35mn
    Bit rate : 62 bps
    Count of elements : 1069
    Stream size : 43.6 KiB (0%)
    Title : Normal
    Language : Italian
    Default : No
    Forced : No

    Text #3
    ID : 6
    Format : UTF-8
    Codec ID : S_TEXT/UTF8
    Codec ID/Info : UTF-8 Plain Text
    Duration : 1h 38mn
    Bit rate : 89 bps
    Count of elements : 1892
    Stream size : 64.7 KiB (0%)
    Title : SDH
    Language : English
    Default : No
    Forced : No

    Menu
    00:00:00.000 : en:00:00:00.000
    00:03:12.442 : en:00:03:12.442
    00:06:51.953 : en:00:06:51.953
    00:12:58.736 : en:00:12:58.736
    00:23:07.636 : en:00:23:07.636
    00:33:45.941 : en:00:33:45.941
    00:37:56.816 : en:00:37:56.816
    00:48:27.154 : en:00:48:27.154
    00:54:41.695 : en:00:54:41.695
    00:58:54.948 : en:00:58:54.948
    01:03:39.482 : en:01:03:39.482
    01:10:44.615 : en:01:10:44.615
    01:15:28.691 : en:01:15:28.691
    01:18:54.146 : en:01:18:54.146
    01:34:32.959 : en:01:34:32.959
    01:36:25.238 : en:01:36:25.238






    ** Contenuto Nascosto: Schiaccia il bottone RINGRAZIA per visualizzare i link **


    Password: W9uf3209bh0Ped970N
  2. 8 utenti hanno ringraziato PirateMKV per ci che ha scritto.

    4K. (09.02.2017), adb80 (4 Giorni Fa), chochobo (19.06.2016), gerico (18.05.2016), ivanverona1 (1 Settimana Fa), Menarello (16.10.2016), mongoporno (2 Giorni Fa), webmagut (26.10.2016)

Permessi di Scrittura

  • Tu non puoi inviare nuove discussioni
  • Tu non puoi inviare risposte
  • Tu non puoi inviare allegati
  • Tu non puoi modificare i tuoi messaggi
  •