HomePage - Come attivare il proprio account - Regole del Forum

HOT NEWS!!!

Rocky IV (1985) BDRip 1080p HEVC ITA ENG AC3 ITA ENG Sub PirateMKV

Rogue one-a Star Wars story (2016)


Rogue One A Star Wars Story il primo capitolo di una nuova avventurosa serie cinematografica che esplora i personaggi e gli eventi che ruotano intorno alla saga di Guerre Stellari.


1080p
720p
UNTOUCHED-1080p
BLURAY FULL
BLURAY FULL 3D
Rocky IV (1985) BDRip 1080p HEVC ITA ENG AC3 ITA ENG Sub PirateMKV


Avviso a tutti i lettori di mondowarezz.Le sezioni Ebook,Quotidiani e Riviste.Sono momentaneamente chiuse.Vi preghiamo di non intasare la chatbox con le stesse domande.Grazie
Risultati da 1 a 1 di 1
  1. #1
    Status
    Offline
    L'avatar di PirateMKV
    Data Registrazione

    08.04.2015

    Messaggi

    2,781

    Ha ringraziato
    85 volte
    Ha Ricevuto 14,588 ringraziamenti in 2,511 discussioni volte
    Taggato
    1 Post(s)

    Rocky IV (1985) BDRip 1080p HEVC ITA ENG AC3 ITA ENG Sub PirateMKV






    Titolo: Rocky IV
    Nazione: USA
    Anno: 1985
    Genere: Drama, Sport
    Durata: 91 min
    Regia: Sylvester Stallone
    Cast: Sylvester Stallone, Talia Shire, Burt Young, Carl Weathers


    Ivan Drago, campione sovietico dei pesi massimi categoria dilettanti, arriva negli Stati Uniti per una esibizione fra lui e Rocky Balboa, che ormai ritiratosi dal ring rinuncia. Drago un gigante, ma Apollo Creed, l'antico avversario di Rocky gi campione del mondo, che da cinque anni non sale per sul "ring", decide di sfidarlo. Malgrado il suo fido amico Rocky Balboa tenti di dissuaderlo dall'impresa azzardatissima, Apollo vuol tentare. Invece perder la vita sotto i durissimi colpi dell'avversario, la cui forza ed addestramento sono incredibili. Rocky allora accetta di andare a Mosca per Natale, allo scopo di affrontare a sua volta Drago.

    Nome Versione: PirateMKV
    Fonte Video: BluRay
    Fonte Audio: BluRay



     






     

    General
    Unique ID : 186737716730756533906799385769543130129 (0x8C7C60442564F448B52A51E82F26DC11)
    Complete name : C:\Users\Administrator\Downloads\Rocky 4\Rocky IV (1985) BDRip 1080p HEVC ITA ENG AC3 ITA ENG Sub PirateMKV.mkv
    Format : Matroska
    Format version : Version 4 / Version 2
    File size : 7.15 GiB
    Duration : 1h 31mn
    Overall bit rate : 11.2 Mbps
    Movie name : Rocky IV (1985) - PirateMKV
    Encoded date : UTC 2016-05-03 17:51:01
    Writing application : mkvmerge v9.1.0 ('Little Earthquakes') 64bit
    Writing library : libebml v1.3.3 libmatroska v1.4.4 / Lavf57.34.103

    Video
    ID : 1
    Format : HEVC
    Format/Info : High Efficiency Video Coding
    Format profile : [email protected]@Main
    Codec ID : V_MPEGH/ISO/HEVC
    Duration : 1h 31mn
    Bit rate : 9 902 Kbps
    Width : 1 920 pixels
    Height : 1 040 pixels
    Display aspect ratio : 1.85:1
    Frame rate mode : Constant
    Frame rate : 23.976 (24000/1001) fps
    Color space : YUV
    Chroma subsampling : 4:2:0
    Bit depth : 8 bits
    Bits/(Pixel*Frame) : 0.207
    Stream size : 6.33 GiB (89%)
    Writing library : x265 1.9:[Windows][GCC 5.2.0][64 bit] 8bit
    Encoding settings : wpp / ctu=64 / min-cu-size=8 / max-tu-size=32 / tu-intra-depth=3 / tu-inter-depth=3 / me=2 / subme=4 / merange=57 / no-rect / no-amp / max-merge=3 / temporal-mvp / no-early-skip / rdpenalty=0 / no-tskip / no-tskip-fast / strong-intra-smoothing / no-lossless / no-cu-lossless / no-constrained-intra / fast-intra / open-gop / no-temporal-layers / interlace=0 / keyint=250 / min-keyint=23 / scenecut=40 / rc-lookahead=40 / lookahead-slices=0 / bframes=8 / bframe-bias=0 / b-adapt=2 / ref=4 / limit-refs=3 / limit-modes / weightp / weightb / aq-mode=1 / qg-size=32 / aq-strength=2.00 / cbqpoffs=0 / crqpoffs=0 / rd=4 / psy-rd=1.00 / rdoq-level=0 / psy-rdoq=0.00 / signhide / deblock=-1:-1 / sao / no-sao-non-deblock / b-pyramid / no-cutree / no-intra-refresh / rc=crf / crf=22.5 / qcomp=0.60 / qpmin=0 / qpmax=51 / qpstep=4 / vbv-maxrate=12000 / vbv-bufsize=12000 / crf-max=0.0 / ipratio=1.40 / pbratio=1.30
    Default : Yes
    Forced : No
    Color range : Limited
    Matrix coefficients : BT.709

    Audio #1
    ID : 2
    Format : AC-3
    Format/Info : Audio Coding 3
    Mode extension : CM (complete main)
    Format settings, Endianness : Big
    Codec ID : A_AC3
    Duration : 1h 31mn
    Bit rate mode : Constant
    Bit rate : 640 Kbps
    Channel(s) : 6 channels
    Channel positions : Front: L C R, Side: L R, LFE
    Sampling rate : 48.0 KHz
    Frame rate : 31.250 fps (1536 spf)
    Compression mode : Lossy
    Stream size : 419 MiB (6%)
    Title : AC3 5.1
    Language : Italian
    Default : Yes
    Forced : No

    Audio #2
    ID : 3
    Format : AC-3
    Format/Info : Audio Coding 3
    Mode extension : CM (complete main)
    Format settings, Endianness : Big
    Codec ID : A_AC3
    Duration : 1h 31mn
    Bit rate mode : Constant
    Bit rate : 640 Kbps
    Channel(s) : 6 channels
    Channel positions : Front: L C R, Side: L R, LFE
    Sampling rate : 48.0 KHz
    Frame rate : 31.250 fps (1536 spf)
    Compression mode : Lossy
    Stream size : 419 MiB (6%)
    Title : AC3 5.1
    Language : English
    Default : No
    Forced : No

    Text #1
    ID : 4
    Format : UTF-8
    Codec ID : S_TEXT/UTF8
    Codec ID/Info : UTF-8 Plain Text
    Duration : 1h 13mn
    Bit rate : 0 bps
    Count of elements : 16
    Stream size : 407 Bytes (0%)
    Title : Forced
    Language : Italian
    Default : Yes
    Forced : Yes

    Text #2
    ID : 5
    Format : UTF-8
    Codec ID : S_TEXT/UTF8
    Codec ID/Info : UTF-8 Plain Text
    Duration : 1h 24mn
    Bit rate : 52 bps
    Count of elements : 759
    Stream size : 32.8 KiB (0%)
    Title : Normal
    Language : Italian
    Default : No
    Forced : No

    Text #3
    ID : 6
    Format : UTF-8
    Codec ID : S_TEXT/UTF8
    Codec ID/Info : UTF-8 Plain Text
    Duration : 1h 29mn
    Bit rate : 72 bps
    Count of elements : 1452
    Stream size : 47.6 KiB (0%)
    Title : SDH
    Language : English
    Default : No
    Forced : No

    Menu #1
    00:00:00.000 : en:00:00:00.000
    00:11:38.114 : en:00:11:38.114
    00:16:42.877 : en:00:16:42.877
    00:25:20.978 : en:00:25:20.978
    00:30:46.678 : en:00:30:46.678
    00:40:48.655 : en:00:40:48.655
    00:43:18.429 : en:00:43:18.429
    00:46:09.642 : en:00:46:09.642
    00:51:22.579 : en:00:51:22.579
    01:00:41.972 : en:01:00:41.972
    01:05:03.650 : en:01:05:03.650
    01:06:26.566 : en:01:06:26.566
    01:13:23.816 : en:01:13:23.816
    01:21:23.796 : en:01:21:23.796
    01:29:48.133 : en:01:29:48.133
    01:33:10.710 : en:01:33:10.710

    Menu #2
    00:00:00.000 : en:00:00:00.000
    00:08:04.818 : en:00:08:04.818
    00:12:33.586 : en:00:12:33.586
    00:20:11.210 : en:00:20:11.210
    00:26:20.037 : en:00:26:20.037
    00:33:56.868 : en:00:33:56.868
    00:41:20.770 : en:00:41:20.770
    00:45:47.036 : en:00:45:47.036
    00:48:22.900 : en:00:48:22.900
    00:55:06.970 : en:00:55:06.970
    00:59:57.761 : en:00:59:57.761
    01:04:11.264 : en:01:04:11.264
    01:09:59.487 : en:01:09:59.487
    01:20:39.376 : en:01:20:39.376
    01:24:51.211 : en:01:24:51.211
    01:27:22.946 : en:01:27:22.946






    ** Contenuto Nascosto: Schiaccia il bottone RINGRAZIA per visualizzare i link **


    Password: W9uf3209bh0Ped970N
  2. 10 utenti hanno ringraziato PirateMKV per ci che ha scritto.

    4K. (09.02.2017), adb80 (1 Settimana Fa), chochobo (19.06.2016), gerico (23.05.2016), ivanverona1 (1 Settimana Fa), Menarello (16.10.2016), mongoporno (6 Giorni Fa), rulkks (2 Giorni Fa), tamgiucla (27.09.2016), webmagut (26.10.2016)

Permessi di Scrittura

  • Tu non puoi inviare nuove discussioni
  • Tu non puoi inviare risposte
  • Tu non puoi inviare allegati
  • Tu non puoi modificare i tuoi messaggi
  •