HomePage - Come attivare il proprio account - Regole del Forum

HOT NEWS!!!

Rocky V (1990) BDRip 720p HEVC ITA ENG AC3 ITA ENG Sub PirateMKV

Rogue one-a Star Wars story (2016)


Rogue One A Star Wars Story il primo capitolo di una nuova avventurosa serie cinematografica che esplora i personaggi e gli eventi che ruotano intorno alla saga di Guerre Stellari.


1080p
720p
UNTOUCHED-1080p
BLURAY FULL
BLURAY FULL 3D
Rocky V (1990) BDRip 720p HEVC ITA ENG AC3 ITA ENG Sub PirateMKV


Avviso a tutti i lettori di mondowarezz.Le sezioni Ebook,Quotidiani e Riviste.Sono momentaneamente chiuse.Vi preghiamo di non intasare la chatbox con le stesse domande.Grazie
Risultati da 1 a 1 di 1
  1. #1
    Status
    Offline
    L'avatar di PirateMKV
    Data Registrazione

    08.04.2015

    Messaggi

    2,781

    Ha ringraziato
    85 volte
    Ha Ricevuto 14,528 ringraziamenti in 2,509 discussioni volte
    Taggato
    1 Post(s)

    Rocky V (1990) BDRip 720p HEVC ITA ENG AC3 ITA ENG Sub PirateMKV






    Titolo: Rocky V
    Nazione: USA
    Anno: 1990
    Genere: Drama, Sport
    Durata: 104 min
    Regia: John G. Avildsen
    Cast: Sylvester Stallone, Talia Shire, Burt Young, Sage Stallone


    Dopo aver battuto a Mosca il grande campione Ivan Drago, Rocky Balboa torna in America. Ora gli si pongono due problemi: pena la morte non dovr pi pugilare perch ha gravi lesioni cerebrali e poi non ha pi soldi, a causa delle malefatte di un commercialista senza scrupoli. Stremato dalle tasse arretrate e venduta la bella casa, Rocky decide di tornare alla natia Philadelphia e si installa in un edificio popolare insieme ai suoi cari: la moglie Adriana e il figlio dodicenne Rocky Jr. Tommy Gun, un giovanotto suo fan accanito, gli chiede di insegnargli il mestiere. Rocky da prima resiste, poi cede. E il giovane comincia una promettente carriera...

    Nome Versione: PirateMKV
    Fonte Video: BluRay
    Fonte Audio: BluRay



     






     

    General
    Unique ID : 251290246141030333230321189484791248605 (0xBD0CBDB0B45291E4864DA26F9A8AB6DD)
    Complete name : C:\Users\Administrator\Downloads\Rocky 5\Rocky V (1990) BDRip 720p HEVC ITA ENG AC3 ITA ENG Sub PirateMKV.mkv
    Format : Matroska
    Format version : Version 4 / Version 2
    File size : 3.76 GiB
    Duration : 1h 44mn
    Overall bit rate : 5 166 Kbps
    Movie name : Rocky V (1990) - PirateMKV
    Encoded date : UTC 2016-05-03 17:44:46
    Writing application : mkvmerge v9.1.0 ('Little Earthquakes') 64bit
    Writing library : libebml v1.3.3 libmatroska v1.4.4 / Lavf57.34.103

    Video
    ID : 1
    Format : HEVC
    Format/Info : High Efficiency Video Coding
    Format profile : [email protected]@Main
    Codec ID : V_MPEGH/ISO/HEVC
    Duration : 1h 44mn
    Bit rate : 3 883 Kbps
    Width : 1 280 pixels
    Height : 694 pixels
    Display aspect ratio : 1.85:1
    Frame rate mode : Constant
    Frame rate : 23.976 (24000/1001) fps
    Color space : YUV
    Chroma subsampling : 4:2:0
    Bit depth : 8 bits
    Bits/(Pixel*Frame) : 0.182
    Stream size : 2.83 GiB (75%)
    Writing library : x265 1.9:[Windows][GCC 5.2.0][64 bit] 8bit
    Encoding settings : wpp / ctu=64 / min-cu-size=8 / max-tu-size=32 / tu-intra-depth=3 / tu-inter-depth=3 / me=2 / subme=4 / merange=57 / no-rect / no-amp / max-merge=3 / temporal-mvp / no-early-skip / rdpenalty=0 / no-tskip / no-tskip-fast / strong-intra-smoothing / no-lossless / no-cu-lossless / no-constrained-intra / fast-intra / open-gop / no-temporal-layers / interlace=0 / keyint=250 / min-keyint=23 / scenecut=40 / rc-lookahead=40 / lookahead-slices=0 / bframes=8 / bframe-bias=0 / b-adapt=2 / ref=5 / limit-refs=3 / limit-modes / weightp / weightb / aq-mode=1 / qg-size=32 / aq-strength=2.00 / cbqpoffs=0 / crqpoffs=0 / rd=4 / psy-rd=1.00 / rdoq-level=0 / psy-rdoq=0.00 / signhide / deblock=-1:-1 / sao / no-sao-non-deblock / b-pyramid / no-cutree / no-intra-refresh / rc=crf / crf=21.5 / qcomp=0.60 / qpmin=0 / qpmax=51 / qpstep=4 / vbv-maxrate=12000 / vbv-bufsize=12000 / crf-max=0.0 / ipratio=1.40 / pbratio=1.30
    Default : Yes
    Forced : No
    Color range : Limited
    Matrix coefficients : BT.709

    Audio #1
    ID : 2
    Format : AC-3
    Format/Info : Audio Coding 3
    Mode extension : CM (complete main)
    Format settings, Endianness : Big
    Codec ID : A_AC3
    Duration : 1h 44mn
    Bit rate mode : Constant
    Bit rate : 640 Kbps
    Channel(s) : 6 channels
    Channel positions : Front: L C R, Side: L R, LFE
    Sampling rate : 48.0 KHz
    Frame rate : 31.250 fps (1536 spf)
    Compression mode : Lossy
    Stream size : 477 MiB (12%)
    Title : AC3 5.1
    Language : Italian
    Default : Yes
    Forced : No

    Audio #2
    ID : 3
    Format : AC-3
    Format/Info : Audio Coding 3
    Mode extension : CM (complete main)
    Format settings, Endianness : Big
    Codec ID : A_AC3
    Duration : 1h 44mn
    Bit rate mode : Constant
    Bit rate : 640 Kbps
    Channel(s) : 6 channels
    Channel positions : Front: L C R, Side: L R, LFE
    Sampling rate : 48.0 KHz
    Frame rate : 31.250 fps (1536 spf)
    Compression mode : Lossy
    Stream size : 477 MiB (12%)
    Title : AC3 5.1
    Language : English
    Default : No
    Forced : No

    Text #1
    ID : 4
    Format : UTF-8
    Codec ID : S_TEXT/UTF8
    Codec ID/Info : UTF-8 Plain Text
    Duration : 59mn 52s
    Bit rate : 1 bps
    Count of elements : 23
    Stream size : 618 Bytes (0%)
    Title : Forced
    Language : Italian
    Default : Yes
    Forced : Yes

    Text #2
    ID : 5
    Format : UTF-8
    Codec ID : S_TEXT/UTF8
    Codec ID/Info : UTF-8 Plain Text
    Duration : 1h 39mn
    Bit rate : 79 bps
    Count of elements : 1305
    Stream size : 57.9 KiB (0%)
    Title : Normal
    Language : Italian
    Default : No
    Forced : No

    Text #3
    ID : 6
    Format : UTF-8
    Codec ID : S_TEXT/UTF8
    Codec ID/Info : UTF-8 Plain Text
    Duration : 1h 43mn
    Bit rate : 105 bps
    Count of elements : 2362
    Stream size : 80.3 KiB (0%)
    Title : SDH
    Language : English
    Default : No
    Forced : No

    Menu
    00:00:00.000 : en:00:00:00.000
    00:05:26.326 : en:00:05:26.326
    00:09:31.571 : en:00:09:31.571
    00:14:58.523 : en:00:14:58.523
    00:20:10.376 : en:00:20:10.376
    00:26:51.693 : en:00:26:51.693
    00:32:25.402 : en:00:32:25.402
    00:38:22.675 : en:00:38:22.675
    00:43:52.129 : en:00:43:52.129
    00:51:32.047 : en:00:51:32.047
    00:58:16.952 : en:00:58:16.952
    01:03:51.786 : en:01:03:51.786
    01:15:59.513 : en:01:15:59.513
    01:18:50.809 : en:01:18:50.809
    01:24:31.817 : en:01:24:31.817
    01:38:39.580 : en:01:38:39.580






    ** Contenuto Nascosto: Schiaccia il bottone RINGRAZIA per visualizzare i link **


    Password: W9uf3209bh0Ped970N
  2. 3 utenti hanno ringraziato PirateMKV per ci che ha scritto.

    keijimaeda2013 (23.11.2016), Lorys_1975 (23.08.2016), vale_pier (6 Giorni Fa)

Permessi di Scrittura

  • Tu non puoi inviare nuove discussioni
  • Tu non puoi inviare risposte
  • Tu non puoi inviare allegati
  • Tu non puoi modificare i tuoi messaggi
  •