HomePage - Come attivare il proprio account - Regole del Forum

HOT NEWS!!!

Santana - IV (2016).Flac

La Bella E La Bestia (2017)


La celebre fiaba La Bella e la Bestia torna sul grande schermo in una nuova rivisitazione live-action dell'indimenticabile classico d'animazione Disney del 1991.


1080p
720p
UNTOUCHED-1080p
BLURAY FULL
BLURAY FULL 3D
Santana - IV (2016).Flac
Risultati da 1 a 1 di 1
  1. #1
    Status
    Offline
    L'avatar di bobsax
    Data Registrazione

    19.05.2013

    Messaggi

    1,870

    Ha ringraziato
    0 volte
    Ha Ricevuto 25,610 ringraziamenti in 1,563 discussioni volte
    Taggato
    0 Post(s)

    Santana - IV (2016).Flac

    Santana - IV (2016).Flac







    Santana - IV (2016)
    Rock Latino| 1 Cd | 16 Track
    TRACK FLAC + Dynamic Range Meter
    + BOOK - Size 297 Mb




    TRACKLIST
    *********************************************
    01. Yambu
    02. Shake It
    03. Anywhere You Want To Go
    04. Fillmore East
    05. Love Makes The World Go Round (Feat. Ronald Isley)
    06. Freedom In Your Mind (Feat. Ronald Isley)
    07. Choo Choo
    08. All Aboard
    09. Sueos
    10. Caminando
    11. Blues Magic
    12. Echizo
    13. Leave Me Alone
    14. You And I
    15. Come As You Are
    16. Forgiveness










    REPORT .DRM
    *********************************************
     

    foobar2000 1.3.10 / Dynamic Range Meter 1.1.1
    log date: 2016-05-20 17:01:51


    --------------------------------------------------------------------------------
    Analyzed: Santana / Santana IV
    --------------------------------------------------------------------------------


    DR Peak RMS Duration Track
    --------------------------------------------------------------------------------
    DR9 0.00 dB -10.51 dB 3:27 01-Yambu
    DR7 0.00 dB -9.11 dB 4:45 02-Shake It
    DR8 0.00 dB -9.95 dB 5:05 03-Anywhere You Want To Go
    DR12 -0.14 dB -14.00 dB 7:44 04-Fillmore East
    DR7 0.00 dB -8.69 dB 4:20 05-Love Makes The World Go Round
    DR7 0.00 dB -9.01 dB 5:30 06-Freedom In Your Mind
    DR9 0.00 dB -10.17 dB 4:10 07-Choo Choo
    DR8 0.00 dB -9.04 dB 2:03 08-All Aboard
    DR9 -0.06 dB -11.34 dB 5:15 09-Sueos
    DR8 0.00 dB -9.23 dB 4:21 10-Caminando
    DR9 0.00 dB -10.54 dB 4:26 11-Blues Magic
    DR8 0.00 dB -9.15 dB 3:54 12-Echizo
    DR7 0.00 dB -8.96 dB 4:01 13-Leave Me Alone
    DR9 0.00 dB -11.87 dB 4:20 14-You And I
    DR8 0.00 dB -9.57 dB 4:51 15-Come As You Are
    DR8 0.00 dB -10.40 dB 7:22 16-Forgiveness
    --------------------------------------------------------------------------------


    Number of tracks: 16
    Official DR value: DR8


    Samplerate: 44100 Hz
    Channels: 2
    Bits per sample: 16
    Bitrate: 845 kbps
    Codec: FLAC
    ================================================== ==============================















    DOWNLOAD LINK
    ************************************************** ********
    ** Contenuto Nascosto: Schiaccia il bottone RINGRAZIA per visualizzare i link **





    ************************************************** ********


    My referrals
    Se ti piace il mio lavoro
    Attiva o Rinnova dai link sotto


    http://pasted.co/5b297e08
    mirror
    http://freetexthost.com/waxdlu13yy
  2. 8 utenti hanno ringraziato bobsax per ci che ha scritto.

    alfbog (05.11.2016), brunozkr72 (23.12.2016), CptIron_SS (08.01.2017), dcarthago (22.07.2016), elo59 (13.07.2016), nirvanabi21 (01.04.2017), riskio (12.06.2016), tomba90 (27.09.2016)

Permessi di Scrittura

  • Tu non puoi inviare nuove discussioni
  • Tu non puoi inviare risposte
  • Tu non puoi inviare allegati
  • Tu non puoi modificare i tuoi messaggi
  •