HomePage - Come attivare il proprio account - Regole del Forum

HOT NEWS!!!

Si alza il vento (2013) BDRip 720p HEVC ITA JAP AC3 ITA Sub PirateMKV

Rogue one-a Star Wars story (2016)


Rogue One A Star Wars Story è il primo capitolo di una nuova avventurosa serie cinematografica che esplora i personaggi e gli eventi che ruotano intorno alla saga di Guerre Stellari.


1080p
720p
UNTOUCHED-1080p
BLURAY FULL
BLURAY FULL 3D
Si alza il vento (2013) BDRip 720p HEVC ITA JAP AC3 ITA Sub PirateMKV


Avviso a tutti i lettori di mondowarezz.Le sezioni Ebook,Quotidiani e Riviste.Sono momentaneamente chiuse.Vi preghiamo di non intasare la chatbox con le stesse domande.Grazie
Risultati da 1 a 1 di 1
  1. #1
    Status
    Offline
    L'avatar di PirateMKV
    Data Registrazione

    08.04.2015

    Messaggi

    2,781

    Ha ringraziato
    85 volte
    Ha Ricevuto 14,610 ringraziamenti in 2,512 discussioni volte
    Taggato
    1 Post(s)

    Si alza il vento (2013) BDRip 720p HEVC ITA JAP AC3 ITA Sub PirateMKV






    Titolo: The Wind Rises
    Nazione: Japan
    Anno: 2013
    Genere: Animation, Biography, Drama
    Durata: 126 min
    Regia: Hayao Miyazaki
    Cast: Hideaki Anno, Hidetoshi Nishijima, Miori Takimoto, Masahiko Nishimura


    Jiro Horikoshi, si presenta al pubblico in sogno, a bordo di un aereo di fantasia in un idillio minacciato da un bombardiere, è un ragazzo con la passione degli aeroplani che nelle sue proiezioni oniriche incontra il proprio idolo, il conte Caproni, grande progettista italiano, a cui confida di voler diventare anch'egli progettista. Durante l'università assisterà al terribile terremoto del '22 e poi troverà lavoro alla Mitsubishi. Studiando la più avanzata tecnologia tedesca cercherà di mettere a punto qualcosa di ancora più innovativo, in grado non solo di colmare il gap che separa il Giappone dagli altri paesi ma anche di superarli. In questi viaggi incontrerà l'amore della sua vita, la donna che lo accompagnerà nel processo creativo.

    Nome Versione: PirateMKV
    Fonte Video: BluRay
    Fonte Audio: BluRay



     






     

    General
    Unique ID : 194554967378545439153576823025794806668 (0x925DEC7AE75B888492B3569A3EE7F38C)
    Complete name : C:\Users\Administrator\Downloads\********************nime\Si.Alza .Il.Vento.2013\Si alza il vento (2013) BDRip 720p HEVC ITA JAP AC3 ITA Sub PirateMKV.mkv
    Format : Matroska
    Format version : Version 4 / Version 2
    File size : 2.42 GiB
    Duration : 2h 6mn
    Overall bit rate : 2 745 Kbps
    Movie name : Si alza il vento (2013) - PirateMKV
    Encoded date : UTC 2016-05-10 18:26:20
    Writing application : mkvmerge v9.1.0 ('Little Earthquakes') 64bit
    Writing library : libebml v1.3.3 libmatroska v1.4.4 / Lavf57.36.100

    Video
    ID : 1
    Format : HEVC
    Format/Info : High Efficiency Video Coding
    Format profile : [email protected]@Main
    Codec ID : V_MPEGH/ISO/HEVC
    Duration : 2h 0mn
    Bit rate : 1 929 Kbps
    Width : 1 280 pixels
    Height : 692 pixels
    Display aspect ratio : 1.85:1
    Frame rate mode : Constant
    Frame rate : 24.000 fps
    Color space : YUV
    Chroma subsampling : 4:2:0
    Bit depth : 8 bits
    Bits/(Pixel*Frame) : 0.091
    Stream size : 1.63 GiB (67%)
    Writing library : x265 1.9:[Windows][GCC 5.2.0][64 bit] 8bit
    Encoding settings : wpp / ctu=64 / min-cu-size=8 / max-tu-size=32 / tu-intra-depth=3 / tu-inter-depth=3 / me=2 / subme=4 / merange=57 / no-rect / no-amp / max-merge=3 / temporal-mvp / no-early-skip / rdpenalty=0 / no-tskip / no-tskip-fast / strong-intra-smoothing / no-lossless / no-cu-lossless / no-constrained-intra / fast-intra / open-gop / no-temporal-layers / interlace=0 / keyint=250 / min-keyint=24 / scenecut=40 / rc-lookahead=40 / lookahead-slices=0 / bframes=8 / bframe-bias=0 / b-adapt=2 / ref=5 / limit-refs=3 / limit-modes / weightp / weightb / aq-mode=1 / qg-size=32 / aq-strength=2.00 / cbqpoffs=0 / crqpoffs=0 / rd=4 / psy-rd=1.00 / rdoq-level=0 / psy-rdoq=0.00 / signhide / deblock=-1:-1 / sao / no-sao-non-deblock / b-pyramid / no-cutree / no-intra-refresh / rc=crf / crf=21.0 / qcomp=0.60 / qpmin=0 / qpmax=51 / qpstep=4 / vbv-maxrate=12000 / vbv-bufsize=12000 / crf-max=0.0 / ipratio=1.40 / pbratio=1.30
    Language : English
    Default : Yes
    Forced : No
    Color range : Limited
    Matrix coefficients : BT.709

    Audio #1
    ID : 2
    Format : AC-3
    Format/Info : Audio Coding 3
    Mode extension : CM (complete main)
    Format settings, Endianness : Big
    Codec ID : A_AC3
    Duration : 2h 6mn
    Bit rate mode : Constant
    Bit rate : 448 Kbps
    Channel(s) : 1 channel
    Channel positions : Front: C
    Sampling rate : 48.0 KHz
    Frame rate : 31.250 fps (1536 spf)
    Compression mode : Lossy
    Stream size : 405 MiB (16%)
    Title : AC3 1.0
    Language : Italian
    Default : Yes
    Forced : No

    Audio #2
    ID : 3
    Format : AC-3
    Format/Info : Audio Coding 3
    Mode extension : CM (complete main)
    Format settings, Endianness : Big
    Codec ID : A_AC3
    Duration : 2h 6mn
    Bit rate mode : Constant
    Bit rate : 448 Kbps
    Channel(s) : 1 channel
    Channel positions : Front: C
    Sampling rate : 48.0 KHz
    Frame rate : 31.250 fps (1536 spf)
    Compression mode : Lossy
    Stream size : 405 MiB (16%)
    Title : AC3 1.0
    Language : Japanese
    Default : No
    Forced : No

    Text #1
    ID : 4
    Format : UTF-8
    Codec ID : S_TEXT/UTF8
    Codec ID/Info : UTF-8 Plain Text
    Duration : 2h 6mn
    Bit rate : 2 bps
    Count of elements : 83
    Stream size : 2.75 KiB (0%)
    Title : Forced
    Language : Italian
    Default : Yes
    Forced : Yes

    Text #2
    ID : 5
    Format : UTF-8
    Codec ID : S_TEXT/UTF8
    Codec ID/Info : UTF-8 Plain Text
    Duration : 2h 6mn
    Bit rate : 50 bps
    Count of elements : 1353
    Stream size : 46.6 KiB (0%)
    Title : Normal
    Language : Italian
    Default : No
    Forced : No

    Text #3
    ID : 6
    Format : UTF-8
    Codec ID : S_TEXT/UTF8
    Codec ID/Info : UTF-8 Plain Text
    Duration : 2h 6mn
    Bit rate : 53 bps
    Count of elements : 1400
    Stream size : 49.5 KiB (0%)
    Title : SDH
    Language : Italian
    Default : No
    Forced : No

    Menu
    00:00:00.000 : en:00:00:00.000
    00:13:04.208 : en:00:13:04.208
    00:20:19.417 : en:00:20:19.417
    00:30:04.667 : en:00:30:04.667
    00:41:30.000 : en:00:41:30.000
    00:51:30.833 : en:00:51:30.833
    01:00:30.417 : en:01:00:30.417
    01:09:36.000 : en:01:09:36.000
    01:22:09.833 : en:01:22:09.833
    01:30:04.417 : en:01:30:04.417
    01:40:03.625 : en:01:40:03.625
    01:50:41.625 : en:01:50:41.625
    02:06:20.167 : en:02:06:20.167






    ** Contenuto Nascosto: Schiaccia il bottone RINGRAZIA per visualizzare i link **


    Password: W9uf3209bh0Ped970N
  2. 2 utenti hanno ringraziato PirateMKV per ciò che ha scritto.

    marbon76 (06.10.2016), ritornerai (28.11.2016)

Permessi di Scrittura

  • Tu non puoi inviare nuove discussioni
  • Tu non puoi inviare risposte
  • Tu non puoi inviare allegati
  • Tu non puoi modificare i tuoi messaggi
  •