HomePage - Come attivare il proprio account - Regole del Forum

HOT NEWS!!!

Single ma non troppo (2016) BDRip 1080p HEVC ITA ENG AC3 ITA ENG Sub PirateMKV

Doctor Strange (2016)


Il neurochirurgo Stephen Strange vede la sua vita cambiare per sempre dopo che un terribile incidente automobilistico lo priva dell’uso delle mani. Quando la medicina tradizionale si dimostra incapace di guarirlo, Strange è costretto cercare una cura in un luogo inaspettato: una misteriosa enclave nota come Kamar-Taj.


1080p
720p
UNTOUCHED-1080p
BLURAY FULL
BLURAY FULL 3D
Single ma non troppo (2016) BDRip 1080p HEVC ITA ENG AC3 ITA ENG Sub PirateMKV
Risultati da 1 a 1 di 1
  1. #1
    Status
    Offline
    L'avatar di PirateMKV
    Data Registrazione

    08.04.2015

    Messaggi

    2,662

    Ha ringraziato
    80 volte
    Ha Ricevuto 11,987 ringraziamenti in 2,345 discussioni volte
    Taggato
    0 Post(s)

    Single ma non troppo (2016) BDRip 1080p HEVC ITA ENG AC3 ITA ENG Sub PirateMKV






    Titolo: How to Be Single
    Nazione: USA
    Anno: 2016
    Genere: Comedy, Romance
    Durata: 110 min
    Regia: Christian Ditter
    Cast: Dakota Johnson, Rebel Wilson, Leslie Mann, Damon Wayans Jr.


    Alice approda a New York e decide di rompere con Josh per esplorare la vita da single e conoscere meglio se stessa. L'amicizia con Robin e la vicinanza della sorella Meg, entrambe single indefesse, sembrano indirizzarla nella giusta direzione, ma ben presto Alice, anziché soddisfare il suo proposito, finisce per invischiarsi in una molteplicità di relazioni con complicazioni.

    Nome Versione: PirateMKV
    Fonte Video: BluRay
    Fonte Audio: iTunes



     






     

    General
    Unique ID : 199706847963628201314319718212540777525 (0x963E23CDD09457D4ABEF63D5BEFF4435)
    Complete name : C:\Users\Administrator\Downloads\howotbesingle\mux \Single ma non troppo (2016) BDRip 1080p HEVC ITA ENG AC3 ITA ENG Sub PirateMKV.mkv
    Format : Matroska
    Format version : Version 4 / Version 2
    File size : 6.99 GiB
    Duration : 1h 49mn
    Overall bit rate : 9 113 Kbps
    Movie name : Single ma non troppo (2016) - PirateMKV
    Encoded date : UTC 2016-05-26 06:06:39
    Writing application : mkvmerge v9.1.0 ('Little Earthquakes') 64bit
    Writing library : libebml v1.3.3 libmatroska v1.4.4 / Lavf57.36.100

    Video
    ID : 1
    Format : HEVC
    Format/Info : High Efficiency Video Coding
    Format profile : Main@L4@Main
    Codec ID : V_MPEGH/ISO/HEVC
    Duration : 1h 49mn
    Bit rate : 8 087 Kbps
    Width : 1 920 pixels
    Height : 800 pixels
    Display aspect ratio : 2.40:1
    Frame rate mode : Constant
    Frame rate : 23.976 (24000/1001) fps
    Color space : YUV
    Chroma subsampling : 4:2:0
    Bit depth : 8 bits
    Bits/(Pixel*Frame) : 0.220
    Stream size : 6.20 GiB (89%)
    Writing library : x265 1.9 170-28cf9adfc82e:[Windows][GCC 5.3.0][64 bit] 8bit
    Encoding settings : wpp / ctu=64 / min-cu-size=8 / max-tu-size=32 / tu-intra-depth=3 / tu-inter-depth=3 / me=2 / subme=4 / merange=57 / no-rect / no-amp / max-merge=3 / temporal-mvp / no-early-skip / no-recursion-skip / rdpenalty=0 / no-tskip / no-tskip-fast / strong-intra-smoothing / no-lossless / no-cu-lossless / no-constrained-intra / fast-intra / open-gop / no-temporal-layers / interlace=0 / keyint=250 / min-keyint=23 / scenecut=40 / rc-lookahead=40 / lookahead-slices=0 / bframes=8 / bframe-bias=0 / b-adapt=2 / ref=5 / limit-refs=3 / limit-modes / weightp / weightb / aq-mode=3 / qg-size=32 / aq-strength=2.00 / cbqpoffs=0 / crqpoffs=0 / rd=4 / psy-rd=1.00 / rdoq-level=0 / psy-rdoq=0.00 / no-rd-refine / signhide / deblock=-1:-1 / sao / no-sao-non-deblock / b-pyramid / no-cutree / no-intra-refresh / rc=crf / crf=21.8 / qcomp=0.60 / qpmin=0 / qpmax=51 / qpstep=4 / vbv-maxrate=12000 / vbv-bufsize=12000 / crf-max=0.0 / ipratio=1.40 / pbratio=1.30
    Language : English
    Default : Yes
    Forced : No
    Color range : Limited
    Matrix coefficients : BT.709

    Audio #1
    ID : 2
    Format : AC-3
    Format/Info : Audio Coding 3
    Mode extension : CM (complete main)
    Format settings, Endianness : Big
    Codec ID : A_AC3
    Duration : 1h 49mn
    Bit rate mode : Constant
    Bit rate : 384 Kbps
    Channel(s) : 6 channels
    Channel positions : Front: L C R, Side: L R, LFE
    Sampling rate : 48.0 KHz
    Frame rate : 31.250 fps (1536 spf)
    Compression mode : Lossy
    Stream size : 302 MiB (4%)
    Title : AC3 5.1 (iTunes Resync)
    Language : Italian
    Default : Yes
    Forced : No

    Audio #2
    ID : 3
    Format : AC-3
    Format/Info : Audio Coding 3
    Mode extension : CM (complete main)
    Format settings, Endianness : Big
    Codec ID : A_AC3
    Duration : 1h 49mn
    Bit rate mode : Constant
    Bit rate : 640 Kbps
    Channel(s) : 6 channels
    Channel positions : Front: L C R, Side: L R, LFE
    Sampling rate : 48.0 KHz
    Frame rate : 31.250 fps (1536 spf)
    Compression mode : Lossy
    Stream size : 503 MiB (7%)
    Title : AC3 5.1
    Language : English
    Default : No
    Forced : No

    Text #1
    ID : 4
    Format : UTF-8
    Codec ID : S_TEXT/UTF8
    Codec ID/Info : UTF-8 Plain Text
    Duration : 1h 42mn
    Bit rate : 1 bps
    Count of elements : 50
    Stream size : 1 021 Bytes (0%)
    Title : Forced
    Language : Italian
    Default : Yes
    Forced : Yes

    Text #2
    ID : 5
    Format : UTF-8
    Codec ID : S_TEXT/UTF8
    Codec ID/Info : UTF-8 Plain Text
    Duration : 1h 42mn
    Bit rate : 72 bps
    Count of elements : 1974
    Stream size : 54.5 KiB (0%)
    Title : Normal
    Language : Italian
    Default : No
    Forced : No

    Text #3
    ID : 6
    Format : UTF-8
    Codec ID : S_TEXT/UTF8
    Codec ID/Info : UTF-8 Plain Text
    Duration : 1h 48mn
    Bit rate : 83 bps
    Count of elements : 2087
    Stream size : 66.3 KiB (0%)
    Title : SDH
    Language : English
    Default : No
    Forced : No

    Menu
    00:00:00.000 : en:00:00:00.000
    00:10:18.493 : en:00:10:18.493
    00:20:34.775 : en:00:20:34.775
    00:31:17.751 : en:00:31:17.751
    00:41:28.194 : en:00:41:28.194
    00:52:06.832 : en:00:52:06.832
    01:03:33.560 : en:01:03:33.560
    01:16:21.160 : en:01:16:21.160
    01:24:43.036 : en:01:24:43.036
    01:32:11.818 : en:01:32:11.818
    01:43:26.826 : en:01:43:26.826






    ** Contenuto Nascosto: Schiaccia il bottone RINGRAZIA per visualizzare i link **


    Password: W9uf3209bh0Ped970N
  2. 3 utenti hanno ringraziato PirateMKV per ciò che ha scritto.

    luca.moneti (20.10.2016), torofurioso (26.05.2016), verul (11.11.2016)

Permessi di Scrittura

  • Tu non puoi inviare nuove discussioni
  • Tu non puoi inviare risposte
  • Tu non puoi inviare allegati
  • Tu non puoi modificare i tuoi messaggi
  •