HomePage - Come attivare il proprio account - Regole del Forum

HOT NEWS!!!

Doctor Strange (2016)


Il neurochirurgo Stephen Strange vede la sua vita cambiare per sempre dopo che un terribile incidente automobilistico lo priva dell’uso delle mani. Quando la medicina tradizionale si dimostra incapace di guarirlo, Strange è costretto cercare una cura in un luogo inaspettato: una misteriosa enclave nota come Kamar-Taj.


1080p
720p
UNTOUCHED-1080p
BLURAY FULL
BLURAY FULL 3D
Risultati da 1 a 1 di 1
  1. #1
    Status
    Offline
    L'avatar di PirateMKV
    Data Registrazione

    08.04.2015

    Messaggi

    2,695

    Ha ringraziato
    80 volte
    Ha Ricevuto 12,564 ringraziamenti in 2,390 discussioni volte
    Taggato
    0 Post(s)

    Taken 3 - L'Ora della Verità - Extended (2014) BDRip 1080p HEVC ITA ENG AC3 ITA ENG Sub PirateMKV






    Titolo: Taken 3
    Nazione: France
    Anno: 2014
    Genere: Action, Thriller
    Durata: 109 min
    Regia: Olivier Megaton
    Cast: Liam Neeson, Forest Whitaker, Famke Janssen, Maggie Grace


    Bryan Mills, ex agente della CIA, si gode il meritato riposo a Los Angeles. La sua vita adesso scorre ordinaria tra una visita alla figlia Kim, che ha appena scoperto di essere incinta, e un bicchiere di vino rosso con l'ex moglie Lenore, in crisi col nuovo compagno e decisa a sedurre il suo ex marito. Ma Bryan vuole restarne fuori, almeno fino a quando Lenore non avrà chiarito la situazione con Stuart, che una sera si presenta alla sua porta e gli domanda nervosamente di stare lontano da lei. La mattina dopo Lenore viene trovata morta nella casa di Bryan, accusato immediatamente dalla polizia. Quasi catturato dagli agenti, Bryan ha comunque la meglio e fugge, deciso a dimostrare la propria innocenza. Ancora una volta lo aiuteranno nell'impresa il fedele Sam, ex collega, e la figlia Kim, che non ha mai dubitato di lui.

    Nome Versione: PirateMKV
    Fonte Video: BluRay
    Fonte Audio: BluRay



     






     

    General
    Unique ID : 254227972314985083523603206822841052740 (0xBF4286C5F76785C793BA47C501B46E44)
    Complete name : C:\Users\Administrator\Downloads\Taken 3 - L'Ora della Verità - Extended (2014) BDRip 1080p HEVC ITA ENG AC3 ITA ENG Sub PirateMKV.mkv
    Format : Matroska
    Format version : Version 4 / Version 2
    File size : 7.38 GiB
    Duration : 1h 55mn
    Overall bit rate : 9 163 Kbps
    Movie name : Taken 3 (2014) - PirateMKV
    Encoded date : UTC 2015-07-23 14:23:51
    Writing application : mkvmerge v7.9.0 ('Birds') 64bit
    Writing library : libebml v1.3.1 libmatroska v1.4.2

    Video
    ID : 1
    Format : HEVC
    Format/Info : High Efficiency Video Coding
    Format profile : [email protected]@Main
    Codec ID : V_MPEGH/ISO/HEVC
    Duration : 1h 55mn
    Bit rate : 7 881 Kbps
    Width : 1 920 pixels
    Height : 800 pixels
    Display aspect ratio : 2.40:1
    Frame rate mode : Constant
    Frame rate : 23.976 (24000/1001) fps
    Color space : YUV
    Chroma subsampling : 4:2:0
    Bit depth : 8 bits
    Bits/(Pixel*Frame) : 0.214
    Stream size : 6.35 GiB (86%)
    Title : HEVC 1080p
    Writing library : x265 1.7 357-b2ba7df1fc69:[Windows][GCC 4.8.2][64 bit] 8bit
    Encoding settings : wpp / ctu=64 / min-cu-size=8 / max-tu-size=32 / tu-intra-depth=3 / tu-inter-depth=3 / me=2 / subme=4 / merange=57 / no-rect / no-amp / max-merge=3 / temporal-mvp / early-skip / rdpenalty=0 / no-tskip / no-tskip-fast / strong-intra-smoothing / no-lossless / no-cu-lossless / no-constrained-intra / fast-intra / open-gop / no-temporal-layers / interlace=0 / keyint=250 / min-keyint=23 / scenecut=40 / rc-lookahead=40 / lookahead-slices=0 / bframes=8 / bframe-bias=0 / b-adapt=2 / ref=5 / limit-refs=0 / weightp / weightb / aq-mode=1 / aq-strength=2.00 / cbqpoffs=0 / crqpoffs=0 / rd=4 / psy-rd=1.00 / rdoq-level=0 / psy-rdoq=0.00 / signhide / deblock=-1:-1 / sao / no-sao-non-deblock / b-pyramid / no-cutree / rc=crf / crf=19.0 / qcomp=0.60 / qpmin=0 / qpmax=51 / qpstep=4 / ipratio=1.40 / pbratio=1.30
    Default : Yes
    Forced : No
    Color range : Limited
    Matrix coefficients : BT.709

    Audio #1
    ID : 2
    Format : AC-3
    Format/Info : Audio Coding 3
    Mode extension : CM (complete main)
    Format settings, Endianness : Big
    Codec ID : A_AC3
    Duration : 1h 55mn
    Bit rate mode : Constant
    Bit rate : 640 Kbps
    Channel(s) : 6 channels
    Channel positions : Front: L C R, Side: L R, LFE
    Sampling rate : 48.0 KHz
    Frame rate : 31.250 fps (1536 spf)
    Compression mode : Lossy
    Stream size : 528 MiB (7%)
    Title : AC3 5.1
    Language : Italian
    Default : Yes
    Forced : No

    Audio #2
    ID : 3
    Format : AC-3
    Format/Info : Audio Coding 3
    Mode extension : CM (complete main)
    Format settings, Endianness : Big
    Codec ID : A_AC3
    Duration : 1h 55mn
    Bit rate mode : Constant
    Bit rate : 640 Kbps
    Channel(s) : 6 channels
    Channel positions : Front: L C R, Side: L R, LFE
    Sampling rate : 48.0 KHz
    Frame rate : 31.250 fps (1536 spf)
    Compression mode : Lossy
    Stream size : 528 MiB (7%)
    Title : AC3 5.1
    Language : English
    Default : No
    Forced : No

    Text #1
    ID : 4
    Format : UTF-8
    Codec ID : S_TEXT/UTF8
    Codec ID/Info : UTF-8 Plain Text
    Duration : 26mn 17s
    Bit rate : 1 bps
    Count of elements : 13
    Stream size : 223 Bytes (0%)
    Title : Forced
    Language : Italian
    Default : Yes
    Forced : Yes

    Text #2
    ID : 5
    Format : UTF-8
    Codec ID : S_TEXT/UTF8
    Codec ID/Info : UTF-8 Plain Text
    Duration : 1h 54mn
    Bit rate : 52 bps
    Count of elements : 1699
    Stream size : 44.0 KiB (0%)
    Title : SDH
    Language : English
    Default : No
    Forced : No

    Text #3
    ID : 6
    Format : UTF-8
    Codec ID : S_TEXT/UTF8
    Codec ID/Info : UTF-8 Plain Text
    Duration : 45mn 30s
    Bit rate : 0 bps
    Count of elements : 13
    Stream size : 221 Bytes (0%)
    Title : Forced
    Language : English
    Default : No
    Forced : No

    Menu
    00:00:00.000 : en:00:00:00.000
    00:04:18.091 : en:00:04:18.091
    00:10:12.820 : en:00:10:12.820
    00:13:20.466 : en:00:13:20.466
    00:15:44.986 : en:00:15:44.986
    00:18:25.354 : en:00:18:25.354
    00:23:18.814 : en:00:23:18.814
    00:25:49.256 : en:00:25:49.256
    00:27:34.861 : en:00:27:34.861
    00:30:21.403 : en:00:30:21.403
    00:33:01.146 : en:00:33:01.146
    00:36:00.283 : en:00:36:00.283
    00:38:17.795 : en:00:38:17.795
    00:43:08.419 : en:00:43:08.419
    00:46:46.428 : en:00:46:46.428
    00:50:21.143 : en:00:50:21.143
    00:55:00.338 : en:00:55:00.338
    00:59:07.293 : en:00:59:07.293
    01:02:49.641 : en:01:02:49.641
    01:05:56.953 : en:01:05:56.953
    01:07:13.863 : en:01:07:13.863
    01:09:59.028 : en:01:09:59.028
    01:14:26.086 : en:01:14:26.086
    01:18:10.185 : en:01:18:10.185
    01:22:19.518 : en:01:22:19.518
    01:25:26.162 : en:01:25:26.162
    01:29:38.206 : en:01:29:38.206
    01:33:24.473 : en:01:33:24.473
    01:37:07.571 : en:01:37:07.571
    01:40:37.656 : en:01:40:37.656
    01:46:48.443 : en:01:46:48.443
    01:49:42.993 : en:01:49:42.993






    ** Contenuto Nascosto: Schiaccia il bottone RINGRAZIA per visualizzare i link **


    Password: W9uf3209bh0Ped970N
  2. 7 utenti hanno ringraziato PirateMKV per ciò che ha scritto.

    4K. (2 Settimane Fa), chochobo (24.08.2016), Menarello (16.10.2016), MMind (1 Settimana Fa), nero44 (23.09.2016), sanchez (26.05.2016), verul (11.09.2016)

Permessi di Scrittura

  • Tu non puoi inviare nuove discussioni
  • Tu non puoi inviare risposte
  • Tu non puoi inviare allegati
  • Tu non puoi modificare i tuoi messaggi
  •