HomePage - Come attivare il proprio account - Regole del Forum

HOT NEWS!!!

Doctor Strange (2016)


Il neurochirurgo Stephen Strange vede la sua vita cambiare per sempre dopo che un terribile incidente automobilistico lo priva dell’uso delle mani. Quando la medicina tradizionale si dimostra incapace di guarirlo, Strange è costretto cercare una cura in un luogo inaspettato: una misteriosa enclave nota come Kamar-Taj.


1080p
720p
UNTOUCHED-1080p
BLURAY FULL
BLURAY FULL 3D
Risultati da 1 a 1 di 1
  1. #1
    Status
    Offline
    L'avatar di PirateMKV
    Data Registrazione

    08.04.2015

    Messaggi

    2,676

    Ha ringraziato
    80 volte
    Ha Ricevuto 12,162 ringraziamenti in 2,360 discussioni volte
    Taggato
    0 Post(s)

    Taken - Io vi troverò (2008) BDRip 720p HEVC ITA ENG AC3 ITA ENG Sub PirateMKV






    Titolo: Taken
    Nazione: France
    Anno: 2008
    Genere: Action, Thriller
    Durata: 93 min
    Regia: Pierre Morel
    Cast: Liam Neeson, Maggie Grace, Leland Orser, Jon Gries


    Cosa c'è di peggio per un padre che assistere al rapimento della figlia mentre le sta parlando al telefono? Questo è l'incubo vissuto da Bryan, ex agente dei servizi segreti americani che ha a disposizione poche ore per strappare la figlia Kim dalle mani di una pericolosa banda specializzata nella tratta delle donne. Primo problema da risolvere: lui è a Los Angeles, il rapimento è avvenuto a Parigi.

    Nome Versione: PirateMKV
    Fonte Video: BluRay
    Fonte Audio: BluRay



     






     

    General
    Unique ID : 205825255348777277149780101273978619024 (0x9AD88094074CEC88A116E70CD5A74490)
    Complete name : C:\Users\Administrator\Downloads\taken\Taken - Io vi troverò (2008) BDRip 720p HEVC ITA ENG AC3 ITA ENG Sub PirateMKV.mkv
    Format : Matroska
    Format version : Version 4 / Version 2
    File size : 3.64 GiB
    Duration : 1h 33mn
    Overall bit rate : 5 575 Kbps
    Movie name : Taken: Io Vi Troverò (2008) - PirateMKV
    Encoded date : UTC 2015-07-22 14:14:09
    Writing application : mkvmerge v7.9.0 ('Birds') 64bit
    Writing library : libebml v1.3.1 libmatroska v1.4.2

    Video
    ID : 1
    Format : HEVC
    Format/Info : High Efficiency Video Coding
    Format profile : [email protected]@Main
    Codec ID : V_MPEGH/ISO/HEVC
    Duration : 1h 33mn
    Bit rate : 4 293 Kbps
    Width : 1 280 pixels
    Height : 548 pixels
    Display aspect ratio : 2.35:1
    Frame rate mode : Constant
    Frame rate : 23.976 (24000/1001) fps
    Color space : YUV
    Chroma subsampling : 4:2:0
    Bit depth : 8 bits
    Bits/(Pixel*Frame) : 0.255
    Stream size : 2.80 GiB (77%)
    Writing library : x265 1.7 357-b2ba7df1fc69:[Windows][GCC 4.8.2][64 bit] 8bit
    Encoding settings : wpp / ctu=64 / min-cu-size=8 / max-tu-size=32 / tu-intra-depth=3 / tu-inter-depth=3 / me=2 / subme=4 / merange=57 / no-rect / no-amp / max-merge=3 / temporal-mvp / early-skip / rdpenalty=0 / no-tskip / no-tskip-fast / strong-intra-smoothing / no-lossless / no-cu-lossless / no-constrained-intra / fast-intra / open-gop / no-temporal-layers / interlace=0 / keyint=250 / min-keyint=23 / scenecut=40 / rc-lookahead=40 / lookahead-slices=0 / bframes=8 / bframe-bias=0 / b-adapt=2 / ref=5 / limit-refs=0 / weightp / weightb / aq-mode=1 / aq-strength=2.00 / cbqpoffs=0 / crqpoffs=0 / rd=4 / psy-rd=1.00 / rdoq-level=0 / psy-rdoq=0.00 / signhide / deblock=-1:-1 / sao / no-sao-non-deblock / b-pyramid / no-cutree / rc=crf / crf=19.0 / qcomp=0.60 / qpmin=0 / qpmax=51 / qpstep=4 / ipratio=1.40 / pbratio=1.30
    Default : Yes
    Forced : No
    Color range : Limited
    Matrix coefficients : BT.709

    Audio #1
    ID : 2
    Format : AC-3
    Format/Info : Audio Coding 3
    Mode extension : CM (complete main)
    Format settings, Endianness : Big
    Codec ID : A_AC3
    Duration : 1h 33mn
    Bit rate mode : Constant
    Bit rate : 640 Kbps
    Channel(s) : 6 channels
    Channel positions : Front: L C R, Side: L R, LFE
    Sampling rate : 48.0 KHz
    Frame rate : 31.250 fps (1536 spf)
    Compression mode : Lossy
    Stream size : 428 MiB (11%)
    Title : AC3 5.1
    Language : Italian
    Default : Yes
    Forced : No

    Audio #2
    ID : 3
    Format : AC-3
    Format/Info : Audio Coding 3
    Mode extension : CM (complete main)
    Format settings, Endianness : Big
    Codec ID : A_AC3
    Duration : 1h 33mn
    Bit rate mode : Constant
    Bit rate : 640 Kbps
    Channel(s) : 6 channels
    Channel positions : Front: L C R, Side: L R, LFE
    Sampling rate : 48.0 KHz
    Frame rate : 31.250 fps (1536 spf)
    Compression mode : Lossy
    Stream size : 428 MiB (11%)
    Title : AC3 5.1
    Language : English
    Default : No
    Forced : No

    Text #1
    ID : 4
    Format : UTF-8
    Codec ID : S_TEXT/UTF8
    Codec ID/Info : UTF-8 Plain Text
    Duration : 1h 18mn
    Bit rate : 2 bps
    Count of elements : 43
    Stream size : 1.16 KiB (0%)
    Title : Forced
    Language : Italian
    Default : Yes
    Forced : Yes

    Text #2
    ID : 5
    Format : UTF-8
    Codec ID : S_TEXT/UTF8
    Codec ID/Info : UTF-8 Plain Text
    Duration : 1h 26mn
    Bit rate : 54 bps
    Count of elements : 934
    Stream size : 34.6 KiB (0%)
    Title : Normal
    Language : Italian
    Default : No
    Forced : No

    Text #3
    ID : 6
    Format : UTF-8
    Codec ID : S_TEXT/UTF8
    Codec ID/Info : UTF-8 Plain Text
    Duration : 1h 27mn
    Bit rate : 55 bps
    Count of elements : 1004
    Stream size : 35.7 KiB (0%)
    Title : SDH
    Language : English
    Default : No
    Forced : No

    Menu
    00:00:00.000 : en:00:00:00.000
    00:04:42.949 : en:00:04:42.949
    00:07:59.020 : en:00:07:59.020
    00:12:51.604 : en:00:12:51.604
    00:16:48.216 : en:00:16:48.216
    00:20:26.725 : en:00:20:26.725
    00:24:27.966 : en:00:24:27.966
    00:29:10.123 : en:00:29:10.123
    00:32:25.277 : en:00:32:25.277
    00:35:52.317 : en:00:35:52.317
    00:38:54.249 : en:00:38:54.249
    00:41:33.282 : en:00:41:33.282
    00:45:46.827 : en:00:45:46.827
    00:51:41.724 : en:00:51:41.724
    00:56:00.440 : en:00:56:00.440
    00:57:36.578 : en:00:57:36.578
    01:03:56.875 : en:01:03:56.875
    01:06:55.762 : en:01:06:55.762
    01:10:18.840 : en:01:10:18.840
    01:15:07.670 : en:01:15:07.670
    01:18:21.655 : en:01:18:21.655
    01:21:08.322 : en:01:21:08.322
    01:26:01.948 : en:01:26:01.948
    01:28:03.653 : en:01:28:03.653






    ** Contenuto Nascosto: Schiaccia il bottone RINGRAZIA per visualizzare i link **


    Password: W9uf3209bh0Ped970N
  2. 4 utenti hanno ringraziato PirateMKV per ciò che ha scritto.

    artificere (31.10.2016), casta458 (26.12.2016), Coby76 (2 Settimane Fa), upiopio (25.09.2016)

Permessi di Scrittura

  • Tu non puoi inviare nuove discussioni
  • Tu non puoi inviare risposte
  • Tu non puoi inviare allegati
  • Tu non puoi modificare i tuoi messaggi
  •