HomePage - Come attivare il proprio account - Regole del Forum

HOT NEWS!!!

Taken - La Vendetta (2012) BDRip 1080p HEVC ITA ENG AC3 ITA ENG Sub PirateMKV

Doctor Strange (2016)


Il neurochirurgo Stephen Strange vede la sua vita cambiare per sempre dopo che un terribile incidente automobilistico lo priva dell’uso delle mani. Quando la medicina tradizionale si dimostra incapace di guarirlo, Strange è costretto cercare una cura in un luogo inaspettato: una misteriosa enclave nota come Kamar-Taj.


1080p
720p
UNTOUCHED-1080p
BLURAY FULL
BLURAY FULL 3D
Taken - La Vendetta (2012) BDRip 1080p HEVC ITA ENG AC3 ITA ENG Sub PirateMKV
Risultati da 1 a 1 di 1
  1. #1
    Status
    Offline
    L'avatar di PirateMKV
    Data Registrazione

    08.04.2015

    Messaggi

    2,689

    Ha ringraziato
    80 volte
    Ha Ricevuto 12,398 ringraziamenti in 2,374 discussioni volte
    Taggato
    0 Post(s)

    Taken - La Vendetta (2012) BDRip 1080p HEVC ITA ENG AC3 ITA ENG Sub PirateMKV






    Titolo: Taken 2
    Nazione: France
    Anno: 2012
    Genere: Action, Crime, Thriller
    Durata: 92 min
    Regia: Olivier Megaton
    Cast: Liam Neeson, Maggie Grace, Famke Janssen, Leland Orser


    Ex uomo della CIA, Bryan Mills è obiettivo della vendetta di un gruppo di criminali albanesi, imparentati con i rapitori uccisi per sua mano nella liberazione della figlia Kim qualche tempo addietro. Quella che poteva essere una rilassante vacanza ad Istanbul, per l'esperto agente in pensione, per l'ex-moglie Lenore e per la risoluta figlia, si trasformerà in una nuova caduta nell'incubo tra scontri a mani nude, pallottole, bombe, sevizie e corse in automobile per i vicoli della città turca.

    Nome Versione: PirateMKV
    Fonte Video: BluRay
    Fonte Audio: BluRay



     






     

    General
    Unique ID : 240073239624251326022083167174619357596 (0xB49C6C9211BA01E58E782982C980E19C)
    Complete name : L:\Done\Taken - La Vendetta (2012) BDRip 1080p HEVC ITA ENG AC3 ITA ENG Sub PirateMKV.mkv
    Format : Matroska
    Format version : Version 4 / Version 2
    File size : 7.75 GiB
    Duration : 1h 38mn
    Overall bit rate : 11.3 Mbps
    Movie name : Taken: La Vendetta (2012) - PirateMKV
    Encoded date : UTC 2015-07-23 06:36:01
    Writing application : mkvmerge v7.9.0 ('Birds') 64bit
    Writing library : libebml v1.3.1 libmatroska v1.4.2
    _STATISTICS_WRITING_APP : mkvmerge v7.9.0 ('Birds') 64bit
    _STATISTICS_WRITING_DATE_UTC : 2015-07-23 06:36:01
    _STATISTICS_TAGS : BPS DURATION NUMBER_OF_FRAMES NUMBER_OF_BYTES
    DURATION : 01:38:18.601000000
    NUMBER_OF_FRAMES : 141425
    NUMBER_OF_BYTES : 7378416361

    Video
    ID : 1
    Format : HEVC
    Format/Info : High Efficiency Video Coding
    Format profile : [email protected]@Main
    Codec ID : V_MPEGH/ISO/HEVC
    Duration : 1h 38mn
    Bit rate : 9 785 Kbps
    Width : 1 920 pixels
    Height : 800 pixels
    Display aspect ratio : 2.40:1
    Frame rate mode : Constant
    Frame rate : 23.976 fps
    Color space : YUV
    Chroma subsampling : 4:2:0
    Bit depth : 8 bits
    Bits/(Pixel*Frame) : 0.266
    Stream size : 6.72 GiB (87%)
    Title : Taken: La Vendetta (2012) - PirateMKV
    Writing library : x265 1.7 357-b2ba7df1fc69:[Windows][GCC 4.8.2][64 bit] 8bit
    Encoding settings : wpp / ctu=64 / min-cu-size=8 / max-tu-size=32 / tu-intra-depth=3 / tu-inter-depth=3 / me=2 / subme=4 / merange=57 / no-rect / no-amp / max-merge=3 / temporal-mvp / early-skip / rdpenalty=0 / no-tskip / no-tskip-fast / strong-intra-smoothing / no-lossless / no-cu-lossless / no-constrained-intra / fast-intra / open-gop / no-temporal-layers / interlace=0 / keyint=250 / min-keyint=23 / scenecut=40 / rc-lookahead=40 / lookahead-slices=0 / bframes=8 / bframe-bias=0 / b-adapt=2 / ref=5 / limit-refs=0 / weightp / weightb / aq-mode=1 / aq-strength=2.00 / cbqpoffs=0 / crqpoffs=0 / rd=4 / psy-rd=1.00 / rdoq-level=0 / psy-rdoq=0.00 / signhide / deblock=-1:-1 / sao / no-sao-non-deblock / b-pyramid / no-cutree / rc=crf / crf=19.0 / qcomp=0.60 / qpmin=0 / qpmax=51 / qpstep=4 / ipratio=1.40 / pbratio=1.30
    Default : Yes
    Forced : No
    Color range : Limited
    Matrix coefficients : BT.709

    Audio #1
    ID : 2
    Format : AC-3
    Format/Info : Audio Coding 3
    Mode extension : CM (complete main)
    Format settings, Endianness : Big
    Codec ID : A_AC3
    Duration : 1h 38mn
    Bit rate mode : Constant
    Bit rate : 640 Kbps
    Channel(s) : 6 channels
    Channel positions : Front: L C R, Side: L R, LFE
    Sampling rate : 48.0 KHz
    Compression mode : Lossy
    Stream size : 450 MiB (6%)
    Title : AC3 5.1
    Language : Italian
    Default : Yes
    Forced : No

    Audio #2
    ID : 3
    Format : AC-3
    Format/Info : Audio Coding 3
    Mode extension : CM (complete main)
    Format settings, Endianness : Big
    Codec ID : A_AC3
    Duration : 1h 38mn
    Bit rate mode : Constant
    Bit rate : 640 Kbps
    Channel(s) : 6 channels
    Channel positions : Front: L C R, Side: L R, LFE
    Sampling rate : 48.0 KHz
    Compression mode : Lossy
    Stream size : 450 MiB (6%)
    Title : AC3 5.1
    Language : English
    Default : No
    Forced : No

    Text #1
    ID : 4
    Format : UTF-8
    Codec ID : S_TEXT/UTF8
    Codec ID/Info : UTF-8 Plain Text
    Title : Forced
    Language : Italian
    Default : Yes
    Forced : Yes

    Text #2
    ID : 5
    Format : UTF-8
    Codec ID : S_TEXT/UTF8
    Codec ID/Info : UTF-8 Plain Text
    Title : Normal
    Language : Italian
    Default : No
    Forced : No

    Text #3
    ID : 6
    Format : UTF-8
    Codec ID : S_TEXT/UTF8
    Codec ID/Info : UTF-8 Plain Text
    Title : Forced
    Language : English
    Default : No
    Forced : No

    Text #4
    ID : 7
    Format : UTF-8
    Codec ID : S_TEXT/UTF8
    Codec ID/Info : UTF-8 Plain Text
    Title : Normal
    Language : English
    Default : No
    Forced : No

    Menu
    00:00:00.000 : en:Her Real Father (Main Titles)
    00:04:18.300 : en:Red Meat, Red Wine
    00:07:24.694 : en:The Diva
    00:12:00.219 : en:Just Sign the Paper
    00:14:37.418 : en:Rules and Conditions
    00:17:53.698 : en:Ah, Paris
    00:21:34.835 : en:Nightmare!
    00:24:44.149 : en:96-Hour Window
    00:27:48.792 : en:Searching the Apartment
    00:33:00.812 : en:Stalking the Stalker
    00:37:41.134 : en:Try Not to Make a Mess
    00:41:00.750 : en:Porte De Clichy
    00:44:25.079 : en:Makeshift Brothel
    00:48:50.427 : en:Thanks, but No Thanks
    00:54:17.129 : en:Paradise
    01:00:45.517 : en:Zeroing In
    01:04:28.281 : en:Sold
    01:08:47.915 : en:What a Pleasant Surprise
    01:11:13.603 : en:Saving the Best for Last
    01:15:43.956 : en:All Sales Are Final
    01:21:35.057 : en:Racing the Boat
    01:25:39.009 : en:Last Man Standing
    01:29:17.727 : en:Welcome Home
    01:32:13.736 : en:End Titles






    ** Contenuto Nascosto: Schiaccia il bottone RINGRAZIA per visualizzare i link **


    Password: W9uf3209bh0Ped970N
  2. 7 utenti hanno ringraziato PirateMKV per ciò che ha scritto.

    4K. (2 Settimane Fa), chochobo (24.08.2016), Menarello (16.10.2016), MMind (1 Settimana Fa), nero44 (23.09.2016), sanchez (26.05.2016), tamgiucla (26.06.2016)

Permessi di Scrittura

  • Tu non puoi inviare nuove discussioni
  • Tu non puoi inviare risposte
  • Tu non puoi inviare allegati
  • Tu non puoi modificare i tuoi messaggi
  •