HomePage - Come attivare il proprio account - Regole del Forum

HOT NEWS!!!

Top Gun (1986) BDRip 720p HEVC ITA ENG AC3 ITA ENG Sub PirateMKV

Passengers (2016)


Durante un viaggio verso una nuova casa su un altro pianeta, due passeggeri vengono svegliati 90 anni prima del previsto per un guasto della nave spaziale.


1080p
720p
UNTOUCHED-1080p
BLURAY FULL
BLURAY FULL 3D
Top Gun (1986) BDRip 720p HEVC ITA ENG AC3 ITA ENG Sub PirateMKV


Avviso a tutti i lettori di mondowarezz.Le sezioni Ebook,Quotidiani e Riviste.Sono momentaneamente chiuse.Vi preghiamo di non intasare la chatbox con le stesse domande.Grazie
Risultati da 1 a 1 di 1
  1. #1
    Status
    Offline
    L'avatar di PirateMKV
    Data Registrazione

    08.04.2015

    Messaggi

    2,781

    Ha ringraziato
    85 volte
    Ha Ricevuto 14,303 ringraziamenti in 2,505 discussioni volte
    Taggato
    1 Post(s)

    Top Gun (1986) BDRip 720p HEVC ITA ENG AC3 ITA ENG Sub PirateMKV






    Titolo: Top Gun
    Nazione: USA
    Anno: 1986
    Genere: Action, Drama, Romance
    Durata: 110 min
    Regia: Tony Scott
    Cast: Tom Cruise, Kelly McGillis, Val Kilmer, Anthony Edwards


    Film campione d'incassi, sponsorizzato dalla marina militare americana per propagandare l'eccezionale bravura dei suoi piloti di caccia, i cosiddetti "top gun". Tra spericolate evoluzioni aeree, tramonti sul mare, ferrea disciplina e russi cattivissimi (il tutto girato a tempo di musica coi ritmi del videoclip) c' anche spazio per una storia d'amore tra il futuro superdivo Tom Cruise e la bellissima Kelly McGillis, improbabile esperta di Mig.

    Nome Versione: PirateMKV
    Fonte Video: BluRay
    Fonte Audio: BluRay



     






     

    General
    Unique ID : 219047126030968082998238699787969351250 (0xA4CAF12207946EC1B315BE6E9CF7CE52)
    Complete name : C:\Users\Administrator\Downloads\Done\TopGun_DONE\ Top Gun (1986) BDRip 720p HEVC ITA ENG AC3 ITA ENG Sub PirateMKV.mkv
    Format : Matroska
    Format version : Version 4 / Version 2
    File size : 2.85 GiB
    Duration : 1h 49mn
    Overall bit rate : 3 722 Kbps
    Movie name : Top Gun (1986) - PirateMKV
    Encoded date : UTC 2016-05-18 08:39:13
    Writing application : mkvmerge v9.1.0 ('Little Earthquakes') 64bit
    Writing library : libebml v1.3.3 libmatroska v1.4.4 / Lavf57.36.100

    Video
    ID : 1
    Format : HEVC
    Format/Info : High Efficiency Video Coding
    Format profile : [email protected]@Main
    Codec ID : V_MPEGH/ISO/HEVC
    Duration : 1h 49mn
    Bit rate : 2 856 Kbps
    Width : 1 280 pixels
    Height : 536 pixels
    Display aspect ratio : 2.40:1
    Original display aspect ratio : 2.40:1
    Frame rate mode : Constant
    Frame rate : 23.976 (24000/1001) fps
    Color space : YUV
    Chroma subsampling : 4:2:0
    Bit depth : 8 bits
    Bits/(Pixel*Frame) : 0.174
    Stream size : 2.19 GiB (77%)
    Writing library : x265 1.9 169-e5b5bdc3c154:[Windows][GCC 5.3.0][64 bit] 8bit
    Encoding settings : wpp / ctu=64 / min-cu-size=8 / max-tu-size=32 / tu-intra-depth=3 / tu-inter-depth=3 / me=2 / subme=4 / merange=57 / no-rect / no-amp / max-merge=3 / temporal-mvp / no-early-skip / no-recursion-skip / rdpenalty=0 / no-tskip / no-tskip-fast / strong-intra-smoothing / no-lossless / no-cu-lossless / no-constrained-intra / fast-intra / open-gop / no-temporal-layers / interlace=0 / keyint=250 / min-keyint=23 / scenecut=40 / rc-lookahead=40 / lookahead-slices=0 / bframes=8 / bframe-bias=0 / b-adapt=2 / ref=5 / limit-refs=3 / limit-modes / weightp / weightb / aq-mode=3 / qg-size=32 / aq-strength=2.00 / cbqpoffs=0 / crqpoffs=0 / rd=4 / psy-rd=1.00 / rdoq-level=0 / psy-rdoq=0.00 / no-rd-refine / signhide / deblock=-1:-1 / sao / no-sao-non-deblock / b-pyramid / no-cutree / no-intra-refresh / rc=crf / crf=21.7 / qcomp=0.60 / qpmin=0 / qpmax=51 / qpstep=4 / vbv-maxrate=12000 / vbv-bufsize=12000 / crf-max=0.0 / ipratio=1.40 / pbratio=1.30
    Language : English
    Default : Yes
    Forced : No
    Color range : Limited
    Matrix coefficients : BT.709

    Audio #1
    ID : 2
    Format : AC-3
    Format/Info : Audio Coding 3
    Format profile : Dolby Digital
    Mode extension : CM (complete main)
    Format settings, Endianness : Big
    Codec ID : A_AC3
    Duration : 1h 49mn
    Bit rate mode : Constant
    Bit rate : 224 Kbps
    Channel(s) : 2 channels
    Channel positions : Front: L R
    Sampling rate : 48.0 KHz
    Frame rate : 31.250 fps (1536 spf)
    Compression mode : Lossy
    Stream size : 176 MiB (6%)
    Title : AC3 2.0
    Language : Italian
    Default : Yes
    Forced : No

    Audio #2
    ID : 3
    Format : AC-3
    Format/Info : Audio Coding 3
    Mode extension : CM (complete main)
    Format settings, Endianness : Big
    Codec ID : A_AC3
    Duration : 1h 49mn
    Bit rate mode : Constant
    Bit rate : 640 Kbps
    Channel(s) : 6 channels
    Channel positions : Front: L C R, Side: L R, LFE
    Sampling rate : 48.0 KHz
    Frame rate : 31.250 fps (1536 spf)
    Compression mode : Lossy
    Stream size : 502 MiB (17%)
    Title : AC3 5.1
    Language : English
    Default : No
    Forced : No

    Text #1
    ID : 4
    Format : UTF-8
    Codec ID : S_TEXT/UTF8
    Codec ID/Info : UTF-8 Plain Text
    Duration : 1h 26mn
    Bit rate : 0 bps
    Count of elements : 9
    Stream size : 302 Bytes (0%)
    Title : Forced
    Language : Italian
    Default : Yes
    Forced : Yes

    Text #2
    ID : 5
    Format : UTF-8
    Codec ID : S_TEXT/UTF8
    Codec ID/Info : UTF-8 Plain Text
    Duration : 1h 48mn
    Bit rate : 38 bps
    Count of elements : 1236
    Stream size : 31.0 KiB (0%)
    Title : Normal
    Language : Italian
    Default : No
    Forced : No

    Text #3
    ID : 6
    Format : UTF-8
    Codec ID : S_TEXT/UTF8
    Codec ID/Info : UTF-8 Plain Text
    Duration : 1h 40mn
    Bit rate : 60 bps
    Count of elements : 1391
    Stream size : 44.5 KiB (0%)
    Title : SDH
    Language : English
    Default : No
    Forced : No

    Menu
    00:00:00.000 : en:Opening Credits
    00:02:40.368 : en:Danger Zone
    00:12:45.431 : en:Unexpected Visitors
    00:19:03.767 : en:Flying on Vapor
    00:25:40.497 : en:Dream Shot
    00:29:26.514 : en:Fightertown, Usa
    00:39:07.470 : en:Target Rich Environment
    00:47:59.543 : en:Crash and Burn
    00:55:23.111 : en:"Charlie"
    01:01:27.850 : en:Turn and Burn
    01:03:59.585 : en:No Flexibility
    01:13:38.038 : en:Flying Against a Ghost
    01:21:09.906 : en:Tempted
    01:27:04.969 : en:Playing with the Boys
    01:34:19.070 : en:No Apologies
    01:41:58.862 : en:Textbook Maneuvers






    ** Contenuto Nascosto: Schiaccia il bottone RINGRAZIA per visualizzare i link **


    Password: W9uf3209bh0Ped970N
  2. 2 utenti hanno ringraziato PirateMKV per ci che ha scritto.

    Coby76 (03.02.2017), djveron (17.07.2016)

Permessi di Scrittura

  • Tu non puoi inviare nuove discussioni
  • Tu non puoi inviare risposte
  • Tu non puoi inviare allegati
  • Tu non puoi modificare i tuoi messaggi
  •