HomePage - Come attivare il proprio account - Regole del Forum

HOT NEWS!!!

The Twilight Saga - Breaking Dawn - Parte 1 (2011) BDRip 720p HEVC ITA ENG AC3 ITA ENG Sub PirateMKV

Rogue one-a Star Wars story (2016)


Rogue One A Star Wars Story il primo capitolo di una nuova avventurosa serie cinematografica che esplora i personaggi e gli eventi che ruotano intorno alla saga di Guerre Stellari.


1080p
720p
UNTOUCHED-1080p
BLURAY FULL
BLURAY FULL 3D
The Twilight Saga - Breaking Dawn - Parte 1 (2011) BDRip 720p HEVC ITA ENG AC3 ITA ENG Sub PirateMKV


Avviso a tutti i lettori di mondowarezz.Le sezioni Ebook,Quotidiani e Riviste.Sono momentaneamente chiuse.Vi preghiamo di non intasare la chatbox con le stesse domande.Grazie
Risultati da 1 a 3 di 3
  1. #1
    Status
    Offline
    L'avatar di PirateMKV
    Data Registrazione

    08.04.2015

    Messaggi

    2,781

    Ha ringraziato
    85 volte
    Ha Ricevuto 14,698 ringraziamenti in 2,519 discussioni volte
    Taggato
    1 Post(s)

    The Twilight Saga - Breaking Dawn - Parte 1 (2011) BDRip 720p HEVC ITA ENG AC3 ITA ENG Sub PirateMKV






    Titolo: The Twilight Saga: Breaking Dawn - Part 1
    Nazione: USA
    Anno: 2011
    Genere: Adventure, Drama, Fantasy
    Durata: 117 min
    Regia: Bill Condon
    Cast: Taylor Lautner, Gil Birmingham, Billy Burke, Sarah Clarke


    Isabella Swan e Edward Cullen si sposano, mormorano i loro s in sordina durante una cerimonia tradizionalmente elegante, che per una volta riunisce tutti, umani e non, Jacob compreso. Il viaggio di nozze in Brasile si conclude con una gravidanza inaspettata, per un verso miracolosa (il padre un non morto), per l'altro pericolosa, per il ritmo di crescita del feto e il rischio a cui sottoposta la madre. Se Bella non sente ragioni e vuole tenere il bambino, Edward e molti della sua famiglia vorrebbero invece dissuaderla.

    Nome Versione: PirateMKV
    Fonte Video: BluRay
    Fonte Audio: BluRay




     






     

    General
    Unique ID : 179509767190638983198851465442448182125 (0x870C52D7128424DA89D1865F815D0B6D)
    Complete name : C:\Users\Administrator\Downloads\twilight4\The Twilight Saga - Breaking Dawn - Parte 1 (2011) BDRip 720p HEVC ITA ENG AC3 ITA ENG Sub PirateMKV.mkv
    Format : Matroska
    Format version : Version 4 / Version 2
    File size : 2.72 GiB
    Duration : 1h 57mn
    Overall bit rate : 3 319 Kbps
    Movie name : The Twilight Saga: Breaking Dawn - Parte 1 (2011) - PirateMKV
    Encoded date : UTC 2015-11-25 22:54:04
    Writing application : mkvmerge v8.5.2 ('Crosses') 64bit
    Writing library : libebml v1.3.3 libmatroska v1.4.4

    Video
    ID : 1
    Format : HEVC
    Format/Info : High Efficiency Video Coding
    Format profile : [email protected]@Main
    Codec ID : V_MPEGH/ISO/HEVC
    Duration : 1h 57mn
    Bit rate : 1 973 Kbps
    Width : 1 280 pixels
    Height : 720 pixels
    Display aspect ratio : 2.40:1
    Frame rate mode : Constant
    Frame rate : 23.976 fps
    Color space : YUV
    Chroma subsampling : 4:2:0
    Bit depth : 8 bits
    Bits/(Pixel*Frame) : 0.089
    Stream size : 1.62 GiB (59%)
    Title : The Twilight Saga: Breaking Dawn - Parte 1 (2011) - PirateMKV
    Writing library : x265 1.8 1-5dcc9d3a928c400b:[Windows][GCC 5.2.0][64 bit] 8bit
    Encoding settings : wpp / ctu=64 / min-cu-size=8 / max-tu-size=32 / tu-intra-depth=3 / tu-inter-depth=3 / me=2 / subme=4 / merange=57 / no-rect / no-amp / max-merge=3 / temporal-mvp / no-early-skip / rdpenalty=0 / no-tskip / no-tskip-fast / strong-intra-smoothing / no-lossless / no-cu-lossless / no-constrained-intra / fast-intra / open-gop / no-temporal-layers / interlace=0 / keyint=250 / min-keyint=23 / scenecut=40 / rc-lookahead=40 / lookahead-slices=0 / bframes=8 / bframe-bias=0 / b-adapt=2 / ref=5 / limit-refs=0 / weightp / weightb / aq-mode=1 / qg-size=32 / aq-strength=2.00 / cbqpoffs=0 / crqpoffs=0 / rd=4 / psy-rd=1.00 / rdoq-level=0 / psy-rdoq=0.00 / signhide / deblock=-1:-1 / sao / no-sao-non-deblock / b-pyramid / cutree / rc=crf / crf=20.0 / qcomp=0.60 / qpmin=0 / qpmax=51 / qpstep=4 / ipratio=1.40 / pbratio=1.30
    Language : English
    Default : Yes
    Forced : No
    Color range : Limited

    Audio #1
    ID : 2
    Format : AC-3
    Format/Info : Audio Coding 3
    Mode extension : CM (complete main)
    Format settings, Endianness : Big
    Codec ID : A_AC3
    Duration : 1h 57mn
    Bit rate mode : Constant
    Bit rate : 640 Kbps
    Channel(s) : 6 channels
    Channel positions : Front: L C R, Side: L R, LFE
    Sampling rate : 48.0 KHz
    Compression mode : Lossy
    Stream size : 538 MiB (19%)
    Title : AC3 5.1
    Language : Italian
    Default : Yes
    Forced : No

    Audio #2
    ID : 3
    Format : AC-3
    Format/Info : Audio Coding 3
    Mode extension : CM (complete main)
    Format settings, Endianness : Big
    Codec ID : A_AC3
    Duration : 1h 57mn
    Bit rate mode : Constant
    Bit rate : 640 Kbps
    Channel(s) : 6 channels
    Channel positions : Front: L C R, Side: L R, LFE
    Sampling rate : 48.0 KHz
    Compression mode : Lossy
    Stream size : 538 MiB (19%)
    Title : AC3 5.1
    Language : English
    Default : No
    Forced : No

    Text #1
    ID : 4
    Format : UTF-8
    Codec ID : S_TEXT/UTF8
    Codec ID/Info : UTF-8 Plain Text
    Title : Forced
    Language : Italian
    Default : Yes
    Forced : Yes

    Text #2
    ID : 5
    Format : UTF-8
    Codec ID : S_TEXT/UTF8
    Codec ID/Info : UTF-8 Plain Text
    Title : Forced
    Language : English
    Default : No
    Forced : Yes

    Text #3
    ID : 6
    Format : UTF-8
    Codec ID : S_TEXT/UTF8
    Codec ID/Info : UTF-8 Plain Text
    Title : Normal
    Language : Italian
    Default : No
    Forced : No

    Text #4
    ID : 7
    Format : UTF-8
    Codec ID : S_TEXT/UTF8
    Codec ID/Info : UTF-8 Plain Text
    Title : Normal
    Language : English
    Default : No
    Forced : No

    Menu
    00:00:00.000 : en:1. Checking for Cold Feet
    00:08:10.114 : en:2. Something Old, Something Blue
    00:11:23.682 : en:3. I Do
    00:16:30.739 : en:4. Let's Start with Forever
    00:21:03.762 : en:5. The Best Man
    00:29:28.266 : en:6. I Can Use a Few Human Minutes
    00:34:43.289 : en:7. Best Night of My Existence
    00:41:15.556 : en:8. Check Mate
    00:47:42.484 : en:9. That's Impossible
    00:55:57.812 : en:10. You Get What You Always Wanted
    01:04:21.440 : en:11. I am the Grandson of a Chief
    01:09:47.057 : en:12. The Treaty is Void
    01:13:47.381 : en:13. You Have Given Me No Choice
    01:20:50.804 : en:14. Picture Me Like I Was
    01:28:22.964 : en:15. Keep Your Heart Beating
    01:36:25.487 : en:16. If You Kill Her, You Kill Me
    01:41:44.097 : en:17. Awakening
    01:46:51.696 : en:18. They Have Something I Want
    01:57:07.770 : en:Credits






    ** Contenuto Nascosto: Schiaccia il bottone RINGRAZIA per visualizzare i link **




    ** Contenuto Nascosto: Schiaccia il bottone RINGRAZIA per visualizzare i link **


    Password: W9uf3209bh0Ped970N
    Ultima modifica di PirateMKV; 21.03.2016 alle 22:39
  2. 14 utenti hanno ringraziato PirateMKV per ci che ha scritto.

    babino67 (17.04.2016), Braciola (30.07.2016), chiara69 (13.05.2016), decama (28.03.2016), elbryanz (13.08.2016), fragiac (3 Settimane Fa), keijimaeda2013 (27.11.2016), Laura71 (01.07.2016), Lorenzo75 (07.08.2016), nemo (23.03.2016), Paolino75 (28.04.2016), pucci7311 (19.06.2016), quakkio (24.04.2016), TONY71274 (02.11.2016)

  3. #2
    Status
    Offline
    L'avatar di Paolino75
    Data Registrazione

    02.06.2013

    Messaggi

    22

    Ha ringraziato
    168 volte
    Ha Ricevuto 9 ringraziamenti in 7 discussioni volte
    Taggato
    0 Post(s)
    Ciao.

    Grazie per il tuo lavoro!! Ammetto i miei limiti, ma non riesco ad ottenere i link per il download. Immetto il codice captcha e poi "kiplinks" mi chiede il "link passwords"- Qual ? Provo a inserire la password "W9uf3209bh0Ped970N" ma mi dice che errato.. Mi potete aiutare per favore. Grazie mille
  4. #3
    Status
    Offline
    L'avatar di PirateMKV
    Data Registrazione

    08.04.2015

    Messaggi

    2,781

    Ha ringraziato
    85 volte
    Ha Ricevuto 14,698 ringraziamenti in 2,519 discussioni volte
    Taggato
    1 Post(s)
    E' da richiedere per mp, ti ho inviato per mp tutto il necessario comunque.
    SEVERAMENTE VIETATO REUPPARE LE MIE RELEASE SENZA IL MIO CONSENSO

    Se non avete l'elenco online delle password Keeplinks dei miei film, potete riceverlo via pm. L'elenco aggiornato costantemente quindi baster richiederlo solo una volta.
  5. The Following User Says Thank You to PirateMKV For This Useful Post:

    fragiac (3 Settimane Fa)

Permessi di Scrittura

  • Tu non puoi inviare nuove discussioni
  • Tu non puoi inviare risposte
  • Tu non puoi inviare allegati
  • Tu non puoi modificare i tuoi messaggi
  •