Una lettera per Momo (Momo e no tegami) č un film d'animazione drammatico diretto nel 2011 da Hiroyuki Okiura e prodotto dallo studio di animazione Production I.G.


Il trionfo dell'animazione
tradizionale!
(Toronto International Film Festival)

Straordinariamente espressivo
e superbamente animato
(New York Int'l Children's Film Festival)

Momo rivaleggia con
"La citta' incantata"
(Variety)


Trama
Momo č una ragazza di 11 anni cresciuta in una grande cittā. Tuttavia, a seguito della perdita prematura del padre, si trasferisce con la madre presso la casa della zia su un'isola remota. Qui il tempo sembra essersi fermato: vecchi edifici in legno, santuari circondati da alberi, campi terrazzati faticosamente scavati su ripide colline... e nessun centro commerciale. Inutile dire che Momo non č troppo entusiasta della nuova abitazione. Ma soprattutto, Momo ancora soffre per una lettera incompiuta lasciatagli dal padre prima che morisse. Una lettera che contiene solo due parole: "Cara Momo". Cosa voleva dire suo padre? Un giorno, esplorando la soffitta della sua nuova casa, Momo trova un antico libro. E da quel momento, strani avvenimenti iniziano a verificarsi intorno a lei... sarā l'inizio di una fantastica avventura.

Titolo originale: Momo e no Tegami
Nazione: Giappone
Anno: 2011
Genere: animazione, drammatico
Durata: 120 minuti
Regia: Hiroyuki Okiura
Formato video: 16:9 MPEG-4 AVC 720p High Definition
Formato audio: Italiano Giapponese Dolby Digital 5.1
Sottotitoli: Italiano (Cartelli+Dialoghi)

Dati Tecnici
 
General
Unique ID : 143829570948555301391072552933351546341 (0x6C349158939120BF5C86AE2942B0DDE5)
Complete name : C:\Una Lettera Per Momo [BDRip HEVC 720p AC3 ITA JAP Sub ITA].mkv
Format : Matroska
Format version : Version 4 / Version 2
File size : 1.76 GiB
Duration : 2 h 0 min
Overall bit rate : 2 089 kb/s
Movie name : Zero-Lelouch
Encoded date : UTC 2018-02-11 05:40:39
Writing application : mkvmerge v19.0.0 ('Brave Captain') 64-bit
Writing library : libebml v1.3.5 + libmatroska v1.4.8

Video
ID : 1
Format : HEVC
Format/Info : High Efficiency Video Coding
Format profile : Main@L3.1@Main
Codec ID : V_MPEGH/ISO/HEVC
Duration : 2 h 0 min
Bit rate : 807 kb/s
Width : 1 280 pixels
Height : 720 pixels
Display aspect ratio : 16:9
Frame rate mode : Constant
Frame rate : 23.976 (24000/1001) FPS
Color space : YUV
Chroma subsampling : 4:2:0
Bit depth : 8 bits
Bits/(Pixel*Frame) : 0.037
Stream size : 694 MiB (39%)
Title : Zero-Lelouch
Writing library : x265 2.1:[Windows][GCC 5.3.1][64 bit] 8bit
Encoding settings : wpp / ctu=64 / min-cu-size=8 / max-tu-size=32 / tu-intra-depth=1 / tu-inter-depth=1 / me=1 / subme=2 / merange=57 / no-rect / no-amp / max-merge=2 / temporal-mvp / no-early-skip / rskip / rdpenalty=0 / no-tskip / no-tskip-fast / no-strong-intra-smoothing / no-lossless / no-cu-lossless / no-constrained-intra / fast-intra / open-gop / no-temporal-layers / interlace=0 / keyint=240 / min-keyint=24 / scenecut=40 / rc-lookahead=15 / lookahead-slices=4 / bframes=4 / bframe-bias=0 / b-adapt=0 / ref=3 / limit-refs=3 / no-limit-modes / weightp / no-weightb / aq-mode=1 / qg-size=32 / aq-strength=1.00 / cbqpoffs=0 / crqpoffs=0 / rd=2 / psy-rd=2.00 / rdoq-level=0 / psy-rdoq=0.00 / log2-max-poc-lsb=8 / no-rd-refine / signhide / deblock=0:0 / sao / no-sao-non-deblock / b-pyramid / cutree / no-intra-refresh / rc=crf / crf=21.0 / qcomp=0.60 / qpmin=0 / qpmax=69 / qpstep=4 / ipratio=1.40 / pbratio=1.30
Language : Japanese
Default : Yes
Forced : No
Color range : Limited
Color primaries : BT.709
Transfer characteristics : BT.709
Matrix coefficients : BT.709

Audio #1
ID : 2
Format : AC-3
Format/Info : Audio Coding 3
Codec ID : A_AC3
Duration : 2 h 0 min
Bit rate mode : Constant
Bit rate : 640 kb/s
Channel(s) : 6 channels
Channel positions : Front: L C R, Side: L R, LFE
Sampling rate : 48.0 kHz
Frame rate : 31.250 FPS (1536 SPF)
Bit depth : 16 bits
Compression mode : Lossy
Stream size : 551 MiB (31%)
Title : Italiano Dolby Digital 5.1
Language : Italian
Service kind : Complete Main
Default : Yes
Forced : No

Audio #2
ID : 3
Format : AC-3
Format/Info : Audio Coding 3
Codec ID : A_AC3
Duration : 2 h 0 min
Bit rate mode : Constant
Bit rate : 640 kb/s
Channel(s) : 6 channels
Channel positions : Front: L C R, Side: L R, LFE
Sampling rate : 48.0 kHz
Frame rate : 31.250 FPS (1536 SPF)
Bit depth : 16 bits
Compression mode : Lossy
Stream size : 551 MiB (31%)
Title : Giapponese Dolby Digital 5.1
Language : Japanese
Service kind : Complete Main
Default : No
Forced : No

Text #1
ID : 4
Format : UTF-8
Codec ID : S_TEXT/UTF8
Codec ID/Info : UTF-8 Plain Text
Duration : 1 h 52 min
Bit rate : 1 b/s
Count of elements : 43
Stream size : 1.31 KiB (0%)
Title : Italiano (Cartelli)
Language : Italian
Default : Yes
Forced : No

Text #2
ID : 5
Format : UTF-8
Codec ID : S_TEXT/UTF8
Codec ID/Info : UTF-8 Plain Text
Duration : 1 h 54 min
Bit rate : 45 b/s
Count of elements : 960
Stream size : 38.3 KiB (0%)
Title : Italiano (Dialoghi)
Language : Italian
Default : No
Forced : No

Menu
00:00:00.000 : en:00:00:00.000
00:17:41.018 : en:00:17:41.018
00:28:14.151 : en:00:28:14.151
00:42:31.799 : en:00:42:31.799
00:52:42.701 : en:00:52:42.701
01:03:05.323 : en:01:03:05.323
01:12:21.295 : en:01:12:21.295
01:20:10.305 : en:01:20:10.305
01:33:50.291 : en:01:33:50.291
01:42:45.034 : en:01:42:45.034
01:47:28.859 : en:01:47:28.859
01:54:21.772 : en:01:54:21.772


Screenshots
 




Download

Easybytez
** Contenuto Nascosto: Schiaccia il bottone RINGRAZIA per visualizzare i link **


Katfile
** Contenuto Nascosto: Schiaccia il bottone RINGRAZIA per visualizzare i link **



Referral Easybytez
Referral Katfile