HomePage - Come attivare il proprio account - Regole del Forum

HOT NEWS!!!

WWE Payback (2016) .mp4 WEB-DLMux 720p x264 AC3 ITA AAC ENG

La Bella E La Bestia (2017)


La celebre fiaba La Bella e la Bestia torna sul grande schermo in una nuova rivisitazione live-action dell'indimenticabile classico d'animazione Disney del 1991.


1080p
720p
UNTOUCHED-1080p
BLURAY FULL
BLURAY FULL 3D
WWE Payback (2016) .mp4 WEB-DLMux 720p x264 AC3 ITA AAC ENG
Risultati da 1 a 1 di 1
  1. #1
    Status
    Offline
    L'avatar di emacio
    Data Registrazione

    08.12.2012

    Messaggi

    1,605

    Ha ringraziato
    2 volte
    Ha Ricevuto 10,139 ringraziamenti in 1,293 discussioni volte
    Taggato
    1 Post(s)

    WWE Payback (2016) .mp4 WEB-DLMux 720p x264 AC3 ITA AAC ENG

    WWE Payback (2016) .mp4 WEB-DLMux 720p x264 AC3 ITA AAC ENG





    Payback (2016) stata la quarta edizione dell'omonimo pay-per-view di wrestling promosso annualmente dalla WWE. L'evento si svolto il 1 maggio 2016 all'Allstate Arena di Rosemont, Illinois.
    In origine quest'edizione si sarebbe dovuta tenere al Prudential Center di Newark, nel New Jersey, ma poi si optato per far svolgere l Extreme Rules (2016), ottava edizione dell'omonimo pay-per-view che si terr il 22 maggio 2016
    Lingua: ITA
    Formato: MP4

    EVENT INFO

    EVENT: WWE Payback 2016
    DATE: May 1, 2016
    CITY: Rosemont, Illinois
    VENUE: Allstate Arena

    Matches
    --------
    1- WWE World Heavyweight Championship : Roman Reigns vs. AJ Styles
    2- WWE Intercontinental Championship : The Miz vs. Cesaro
    3- WWE Women's Championship : Charlotte vs. Natalya
    4- WWE Tag Team Championship : Enzo Amore and Colin Cassady vs. Aiden English and Simon Gotch
    5- Dean Ambrose vs. Chris Jericho
    6- Sami Zayn vs. Kevin Owens
    7- Dolph Ziggler vs. Baron Corbin















     
    General
    Complete name : WWE.Payback.2016.WEB-DLMux.720p.x264.AC3.ITA.AAC.ENG-C&S.mp4
    Format : MPEG-4
    Format profile : Base Media
    Codec ID : isom
    File size : 5.79 GiB
    Duration : 2h 56mn
    Overall bit rate mode : Variable
    Overall bit rate : 4 695 Kbps
    Writing application : Lavf56.25.101

    Video
    ID : 1
    Format : AVC
    Format/Info : Advanced Video Codec
    Format profile : [email protected]
    Format settings, CABAC : Yes
    Format settings, ReFrames : 4 frames
    Codec ID : avc1
    Codec ID/Info : Advanced Video Coding
    Duration : 2h 56mn
    Duration_FirstFrame : 67ms
    Bit rate mode : Constant
    Bit rate : 4 372 Kbps
    Width : 1 280 pixels
    Height : 720 pixels
    Display aspect ratio : 16:9
    Frame rate mode : Constant
    Frame rate : 29.970 fps
    Color space : YUV
    Chroma subsampling : 4:2:0
    Bit depth : 8 bits
    Scan type : Progressive
    Bits/(Pixel*Frame) : 0.158
    Stream size : 5.38 GiB (93%)

    Audio #1
    ID : 2
    Format : AC-3
    Format/Info : Audio Coding 3
    Mode extension : CM (complete main)
    Format settings, Endianness : Big
    Codec ID : ac-3
    Duration : 2h 56mn
    Bit rate mode : Constant
    Bit rate : 192 Kbps
    Channel(s) : 2 channels
    Channel positions : Front: L R
    Sampling rate : 48.0 KHz
    Bit depth : 16 bits
    Compression mode : Lossy
    Stream size : 242 MiB (4%)
    Language : Italian

    Audio #2
    ID : 3
    Format : AAC
    Format/Info : Advanced Audio Codec
    Format profile : LC
    Codec ID : 40
    Duration : 2h 56mn
    Bit rate mode : Variable
    Bit rate : 125 Kbps
    Maximum bit rate : 128 Kbps
    Channel(s) : 2 channels
    Channel positions : Front: L R
    Sampling rate : 48.0 KHz
    Compression mode : Lossy
    Stream size : 158 MiB (3%)

    Text
    ID : 1-CC1
    Format : EIA-608
    Muxing mode : SCTE 128 / DTVCC Transport
    Muxing mode, more info : Muxed in Video #1
    Duration : 2h 56mn
    Bit rate mode : Constant
    Stream size : 0.00 Byte (0%)
    Encoded stream size : 0.00 Byte (0%)








    ** Contenuto Nascosto: Schiaccia il bottone RINGRAZIA per visualizzare i link **








    ** Contenuto Nascosto: Schiaccia il bottone RINGRAZIA per visualizzare i link **





    Se ti piacciono le mie release rinnova o crea il tuo account nei miei banner qui sotto, Grazie.

    http://www.easybytez.com/free389142.html
    http://www.wickedcloud.io/free2931.html
  2. 11 utenti hanno ringraziato emacio per ci che ha scritto.

    calimerocz (11.05.2016), CARLOS73 (22.05.2016), Cicciobello70cb (03.05.2016), ciloon (05.05.2016), Diabolik64 (03.05.2016), francygir55 (04.05.2016), joaoliesi (04.05.2016), midelma (04.05.2016), piergiorgio74 (05.05.2016), pucci7311 (05.05.2016), zagor86 (03.05.2016)

Permessi di Scrittura

  • Tu non puoi inviare nuove discussioni
  • Tu non puoi inviare risposte
  • Tu non puoi inviare allegati
  • Tu non puoi modificare i tuoi messaggi
  •