HomePage - Come attivare il proprio account - Regole del Forum

HOT NEWS!!!

WWE Payback (2016) PPV WEB AAC H264-WD ENG

Rogue one-a Star Wars story (2016)


Rogue One A Star Wars Story il primo capitolo di una nuova avventurosa serie cinematografica che esplora i personaggi e gli eventi che ruotano intorno alla saga di Guerre Stellari.


1080p
720p
UNTOUCHED-1080p
BLURAY FULL
BLURAY FULL 3D
WWE Payback (2016) PPV WEB AAC H264-WD ENG


Avviso a tutti i lettori di mondowarezz.Le sezioni Ebook,Quotidiani e Riviste.Sono momentaneamente chiuse.Vi preghiamo di non intasare la chatbox con le stesse domande.Grazie
Risultati da 1 a 1 di 1
  1. #1
    Status
    Offline
    L'avatar di emacio
    Data Registrazione

    08.12.2012

    Messaggi

    1,483

    Ha ringraziato
    2 volte
    Ha Ricevuto 9,815 ringraziamenti in 1,219 discussioni volte
    Taggato
    1 Post(s)

    WWE Payback (2016) PPV WEB AAC H264-WD ENG

    WWE Payback (2016) PPV WEB AAC H264-WD ENG





    Payback (2016) stata la quarta edizione dell'omonimo pay-per-view di wrestling promosso annualmente dalla WWE. L'evento si svolto il 1 maggio 2016 all'Allstate Arena di Rosemont, Illinois.
    In origine quest'edizione si sarebbe dovuta tenere al Prudential Center di Newark, nel New Jersey, ma poi si optato per far svolgere l Extreme Rules (2016), ottava edizione dell'omonimo pay-per-view che si terr il 22 maggio 2016
    Lingua: Eng
    Formato: Mp4

    EVENT INFO

    EVENT: WWE Payback 2016
    DATE: May 1, 2016
    CITY: Rosemont, Illinois
    VENUE: Allstate Arena

    Matches
    --------
    1- WWE World Heavyweight Championship : Roman Reigns vs. AJ Styles
    2- WWE Intercontinental Championship : The Miz vs. Cesaro
    3- WWE Women's Championship : Charlotte vs. Natalya
    4- WWE Tag Team Championship : Enzo Amore and Colin Cassady vs. Aiden English and Simon Gotch
    5- Dean Ambrose vs. Chris Jericho
    6- Sami Zayn vs. Kevin Owens
    7- Dolph Ziggler vs. Baron Corbin















     
    General
    Complete name :
    WWE.Payback.2016.PPV.WEB.h264-WD.mp4
    Format : MPEG-4
    Format profile : Base Media
    Codec ID : isom
    File size : 2.23 GiB
    Duration : 2h 56mn
    Overall bit rate mode : Variable
    Overall bit rate : 1 806 Kbps
    Writing application : Lavf57.20.100

    Video
    ID : 1
    Format : AVC
    Format/Info : Advanced Video Codec
    Format profile : [email protected]
    Format settings, CABAC : Yes
    Format settings, ReFrames : 4 frames
    Codec ID : avc1
    Codec ID/Info : Advanced Video Coding
    Duration : 2h 56mn
    Bit rate mode : Constant
    Bit rate : 1 704 Kbps
    Width : 896 pixels
    Height : 504 pixels
    Display aspect ratio : 16:9
    Frame rate mode : Constant
    Frame rate : 29.970 fps
    Color space : YUV
    Chroma subsampling : 4:2:0
    Bit depth : 8 bits
    Scan type : Progressive
    Bits/(Pixel*Frame) : 0.126
    Stream size : 2.10 GiB (94%)

    Audio
    ID : 2
    Format : AAC
    Format/Info : Advanced Audio Codec
    Format profile : LC
    Codec ID : 40
    Duration : 2h 56mn
    Bit rate mode : Variable
    Bit rate : 93.5 Kbps
    Maximum bit rate : 96.4 Kbps
    Channel(s) : 2 channels
    Channel positions : Front: L R
    Sampling rate : 48.0 KHz
    Compression mode : Lossy
    Stream size : 118 MiB (5%)

    Text
    ID : 1-CC1
    Format : EIA-608
    Muxing mode : SCTE 128 / DTVCC Transport
    Muxing mode, more info : Muxed in Video #1
    Duration : 2h 56mn
    Bit rate mode : Constant
    Stream size : 0.00 Byte (0%)
    Encoded stream size : 0.00 Byte (0%)








    ** Contenuto Nascosto: Schiaccia il bottone RINGRAZIA per visualizzare i link **








    ** Contenuto Nascosto: Schiaccia il bottone RINGRAZIA per visualizzare i link **


  2. The Following User Says Thank You to emacio For This Useful Post:

    magnum033 (02.05.2016)

Permessi di Scrittura

  • Tu non puoi inviare nuove discussioni
  • Tu non puoi inviare risposte
  • Tu non puoi inviare allegati
  • Tu non puoi modificare i tuoi messaggi
  •