HomePage - Come attivare il proprio account - Regole del Forum

HOT NEWS!!!

Zootropolis (2016) BDRip 720p HEVC ITA ENG AC3 ITA ENG Sub PirateMKV

Doctor Strange (2016)


Il neurochirurgo Stephen Strange vede la sua vita cambiare per sempre dopo che un terribile incidente automobilistico lo priva dell’uso delle mani. Quando la medicina tradizionale si dimostra incapace di guarirlo, Strange è costretto cercare una cura in un luogo inaspettato: una misteriosa enclave nota come Kamar-Taj.


1080p
720p
UNTOUCHED-1080p
BLURAY FULL
BLURAY FULL 3D
Zootropolis (2016) BDRip 720p HEVC ITA ENG AC3 ITA ENG Sub PirateMKV
Risultati da 1 a 2 di 2
  1. #1
    Status
    Offline
    L'avatar di PirateMKV
    Data Registrazione

    08.04.2015

    Messaggi

    2,663

    Ha ringraziato
    80 volte
    Ha Ricevuto 12,020 ringraziamenti in 2,345 discussioni volte
    Taggato
    0 Post(s)

    Zootropolis (2016) BDRip 720p HEVC ITA ENG AC3 ITA ENG Sub PirateMKV









    Titolo: Zootopia
    Nazione: USA
    Anno: 2016
    Genere: Animation, Action, Adventure
    Durata: 108 min
    Regia: Byron Howard, Rich Moore, Jared Bush
    Cast: Ginnifer Goodwin, Jason Bateman, Idris Elba, Jenny Slate



    Il mondo animale è cambiato: non è più diviso in due fra docili prede e feroci predatori, ma armoniosamente coabitato da entrambi. Judy è una coniglietta dalle grandi ambizioni che sogna di diventare poliziotta, poiché le è stato insegnato che tutto è possibile in questo nuovo mondo. Nick è una volpe che vive di espedienti nella capitale, Zootropolis, dove Judy, dopo un estenuante training in accademia, approda come ausiliaria del traffico. Toccherà a loro, inaspettatamente uniti, risolvere il mistero dei 14 animali scomparsi che tutta la città sta cercando e sventare i piani di chi vuole impossessarsi del potere locale, secondo l'atavico principio divide et impera.


    Nome Versione: PirateMKV
    Fonte Video: BluRay
    Fonte Audio: BluRay
    Tracce Audio: ITA ENG AC3
    Tracce Sub: ITA ENG





     








     

    General
    Unique ID : 213058039339308771916376709804221805135 (0xA0497C5C71F47F6A8721032349BC324F)
    Complete name : C:\Users\Administrator\Downloads\Zootropolis\Zootr opolis (2016) BDRip 720p HEVC ITA ENG AC3 ITA ENG Sub PirateMKV.mkv
    Format : Matroska
    Format version : Version 4 / Version 2
    File size : 2.36 GiB
    Duration : 1h 48mn
    Overall bit rate : 3 107 Kbps
    Movie name : Zootropolis (2016) - PirateMKV
    Encoded date : UTC 2016-06-03 19:37:46
    Writing application : mkvmerge v9.1.0 ('Little Earthquakes') 64bit
    Writing library : libebml v1.3.3 + libmatroska v1.4.4 / Lavf57.36.100


    Video
    ID : 1
    Format : HEVC
    Format/Info : High Efficiency Video Coding
    Format profile : Main@L4@Main
    Codec ID : V_MPEGH/ISO/HEVC
    Duration : 1h 48mn
    Bit rate : 1 825 Kbps
    Width : 1 280 pixels
    Height : 536 pixels
    Display aspect ratio : 2.40:1
    Frame rate mode : Constant
    Frame rate : 23.976 (24000/1001) fps
    Color space : YUV
    Chroma subsampling : 4:2:0
    Bit depth : 8 bits
    Bits/(Pixel*Frame) : 0.111
    Stream size : 1.38 GiB (59%)
    Writing library : x265 1.9+170-28cf9adfc82e:[Windows][GCC 5.3.0][64 bit] 8bit
    Encoding settings : wpp / ctu=64 / min-cu-size=8 / max-tu-size=32 / tu-intra-depth=3 / tu-inter-depth=3 / me=2 / subme=4 / merange=57 / no-rect / no-amp / max-merge=3 / temporal-mvp / no-early-skip / no-recursion-skip / rdpenalty=0 / no-tskip / no-tskip-fast / strong-intra-smoothing / no-lossless / no-cu-lossless / no-constrained-intra / fast-intra / open-gop / no-temporal-layers / interlace=0 / keyint=250 / min-keyint=23 / scenecut=40 / rc-lookahead=40 / lookahead-slices=0 / bframes=8 / bframe-bias=0 / b-adapt=2 / ref=5 / limit-refs=3 / limit-modes / weightp / weightb / aq-mode=3 / qg-size=32 / aq-strength=2.00 / cbqpoffs=0 / crqpoffs=0 / rd=4 / psy-rd=1.00 / rdoq-level=0 / psy-rdoq=0.00 / no-rd-refine / signhide / deblock=-1:-1 / sao / no-sao-non-deblock / b-pyramid / no-cutree / no-intra-refresh / rc=crf / crf=21.4 / qcomp=0.60 / qpmin=0 / qpmax=51 / qpstep=4 / vbv-maxrate=12000 / vbv-bufsize=12000 / crf-max=0.0 / ipratio=1.40 / pbratio=1.30
    Language : English
    Default : Yes
    Forced : No
    Color range : Limited
    Matrix coefficients : BT.709


    Audio #1
    ID : 2
    Format : AC-3
    Format/Info : Audio Coding 3
    Mode extension : CM (complete main)
    Format settings, Endianness : Big
    Codec ID : A_AC3
    Duration : 1h 48mn
    Bit rate mode : Constant
    Bit rate : 640 Kbps
    Channel(s) : 6 channels
    Channel positions : Front: L C R, Side: L R, LFE
    Sampling rate : 48.0 KHz
    Frame rate : 31.250 fps (1536 spf)
    Compression mode : Lossy
    Stream size : 497 MiB (21%)
    Title : AC3 5.1
    Language : Italian
    Default : Yes
    Forced : No


    Audio #2
    ID : 3
    Format : AC-3
    Format/Info : Audio Coding 3
    Mode extension : CM (complete main)
    Format settings, Endianness : Big
    Codec ID : A_AC3
    Duration : 1h 48mn
    Bit rate mode : Constant
    Bit rate : 640 Kbps
    Channel(s) : 6 channels
    Channel positions : Front: L C R, Side: L R, LFE
    Sampling rate : 48.0 KHz
    Frame rate : 31.250 fps (1536 spf)
    Compression mode : Lossy
    Stream size : 497 MiB (21%)
    Title : AC3 5.1
    Language : English
    Default : No
    Forced : No


    Text #1
    ID : 4
    Format : UTF-8
    Codec ID : S_TEXT/UTF8
    Codec ID/Info : UTF-8 Plain Text
    Duration : 1h 18mn
    Bit rate : 0 bps
    Count of elements : 14
    Stream size : 338 Bytes (0%)
    Title : Forced
    Language : Italian
    Default : Yes
    Forced : Yes


    Text #2
    ID : 5
    Format : UTF-8
    Codec ID : S_TEXT/UTF8
    Codec ID/Info : UTF-8 Plain Text
    Duration : 1h 39mn
    Bit rate : 71 bps
    Count of elements : 1667
    Stream size : 52.0 KiB (0%)
    Title : Normal
    Language : Italian
    Default : No
    Forced : No


    Text #3
    ID : 6
    Format : UTF-8
    Codec ID : S_TEXT/UTF8
    Codec ID/Info : UTF-8 Plain Text
    Duration : 1h 38mn
    Bit rate : 73 bps
    Count of elements : 1696
    Stream size : 53.6 KiB (0%)
    Title : Normal
    Language : English
    Default : No
    Forced : No


    Text #4
    ID : 7
    Format : UTF-8
    Codec ID : S_TEXT/UTF8
    Codec ID/Info : UTF-8 Plain Text
    Duration : 1h 45mn
    Bit rate : 82 bps
    Count of elements : 2292
    Stream size : 64.2 KiB (0%)
    Title : SDH
    Language : English
    Default : No
    Forced : No


    Menu
    00:00:00.000 : en:Prologue
    00:00:59.559 : en:Gideon Grey
    00:05:50.100 : en:The Police Accademy
    00:10:05.563 : en:Welcome To Zootopia
    00:14:31.537 : en:Meter Maid Duty
    00:18:24.019 : en:Pawpsicles
    00:26:03.353 : en:The Weasel Chase
    00:30:57.439 : en:It's Called A Hustle
    00:37:07.100 : en:The Naturalist Club
    00:40:43.441 : en:Department Of Mammal Vehicles
    00:44:31.752 : en:Mr. Big
    00:51:40.430 : en:Manchas Goes Savage
    00:55:40.378 : en:The Gondola
    01:00:48.269 : en:Help From Bellwether
    01:03:37.855 : en:Cliffside Asylum
    01:09:19.822 : en:We Cracked The Case
    01:13:39.165 : en:Hopps Gives Up
    01:17:07.372 : en:Hoops' Apology
    01:21:52.366 : en:Doug's Laboratory
    01:28:19.169 : en:The Natural Museum
    01:32:43.433 : en:Epilogue
    01:36:12.141 : en:End Credits








    Codice:
    http://www.keeplinks.eu/p6/5747eab0d5b99

    Password Archivi: W9uf3209bh0Ped970N
    Ultima modifica di PirateMKV; 03.06.2016 alle 22:03 Motivo: Aggiornato con audio da bluray
  2. 9 utenti hanno ringraziato PirateMKV per ciò che ha scritto.

    Akainew (13.08.2016), blohack (30.05.2016), dadedade (09.06.2016), giolinda69 (03.07.2016), keijimaeda2013 (21.11.2016), marclenders (13.09.2016), Rockfree (31.05.2016), slym74 (24.12.2016), yuller (03.06.2016)

  3. #2
    Status
    Offline
    L'avatar di PirateMKV
    Data Registrazione

    08.04.2015

    Messaggi

    2,663

    Ha ringraziato
    80 volte
    Ha Ricevuto 12,020 ringraziamenti in 2,345 discussioni volte
    Taggato
    0 Post(s)
    Aggiornato con audio da BluRay.
    È SEVERAMENTE VIETATO REUPPARE LE MIE RELEASE SENZA IL MIO CONSENSO

    Se non avete l'elenco online delle password Keeplinks dei miei film, potete riceverlo via pm. L'elenco è aggiornato costantemente quindi basterà richiederlo solo una volta.
  4. The Following User Says Thank You to PirateMKV For This Useful Post:

    marclenders (13.09.2016)

Permessi di Scrittura

  • Tu non puoi inviare nuove discussioni
  • Tu non puoi inviare risposte
  • Tu non puoi inviare allegati
  • Tu non puoi modificare i tuoi messaggi
  •