HomePage - Come attivare il proprio account - Regole del Forum

HOT NEWS!!!

Zucchero - Black Cat (2016) .Flac

La Bella E La Bestia (2017)


La celebre fiaba La Bella e la Bestia torna sul grande schermo in una nuova rivisitazione live-action dell'indimenticabile classico d'animazione Disney del 1991.


1080p
720p
UNTOUCHED-1080p
BLURAY FULL
BLURAY FULL 3D
Zucchero - Black Cat (2016) .Flac
Risultati da 1 a 1 di 1
  1. #1
    Status
    Offline
    L'avatar di rapidols
    Data Registrazione

    24.11.2012

    Messaggi

    1,686

    Ha ringraziato
    0 volte
    Ha Ricevuto 12,942 ringraziamenti in 908 discussioni volte
    Taggato
    0 Post(s)

    Zucchero - Black Cat (2016) .Flac



    Zucchero - Black Cat (2016)
    1 CD | Tracks: 13 | Flac, Tracks+.Log+.Cue | Genre: Pop, Soul, Rock
    Size: 304 mb | Front, Back, CD |


    Tracklist:
    1. Partigiano Reggiano
    2. 13 Buone Ragioni
    3. Ti Voglio Sposare
    4. Ci Si Arrende Featuring Mark Knopfler
    5. Ten More Days
    6. L'Anno Dell'Amore
    7. Hey Lord
    8. Fatti Di Sogni
    9. La Tortura Della Luna
    10. Love Again
    11. Terra Incognita
    12. Voci - Namanama Version
    13. Streets Of Surrender (S.O.S.) Featuring Mark Knopfler

    .Log:
     

    Exact Audio Copy V1.1 from 23. June 2015

    EAC extraction logfile from 29. April 2016, 18:21

    Zucchero Sugar Fornaciari / Black Cat

    Used drive : HL-DT-STDVDRAM GH24NSD1 Adapter: 0 ID: 0

    Read mode : Secure
    Utilize accurate stream : Yes
    Defeat audio cache : Yes
    Make use of C2 pointers : No

    Read offset correction : 6
    Overread into Lead-In and Lead-Out : No
    Fill up missing offset samples with silence : Yes
    Delete leading and trailing silent blocks : No
    Null samples used in CRC calculations : Yes
    Used interface : Installed external ASPI interface

    Used output format : Internal WAV Routines
    Sample format : 44.100 Hz; 16 Bit; Stereo


    TOC of the extracted CD

    Track | Start | Length | Start sector | End sector
    ---------------------------------------------------------
    1 | 0:00.00 | 3:00.08 | 0 | 13507
    2 | 3:00.08 | 3:25.65 | 13508 | 28947
    3 | 6:25.73 | 3:08.12 | 28948 | 43059
    4 | 9:34.10 | 3:56.68 | 43060 | 60827
    5 | 13:31.03 | 3:21.14 | 60828 | 75916
    6 | 16:52.17 | 3:24.33 | 75917 | 91249
    7 | 20:16.50 | 4:02.49 | 91250 | 109448
    8 | 24:19.24 | 3:33.55 | 109449 | 125478
    9 | 27:53.04 | 3:36.09 | 125479 | 141687
    10 | 31:29.13 | 3:54.31 | 141688 | 159268
    11 | 35:23.44 | 4:22.23 | 159269 | 178941
    12 | 39:45.67 | 3:48.11 | 178942 | 196052
    13 | 43:34.03 | 3:58.35 | 196053 | 213937


    Range status and errors

    Selected range

    Filename E:\SPOTNET\Zucchero - Black Cat (EAC)\Zucchero Sugar Fornaciari - Black Cat.wav

    Peak level 100.0 %
    Extraction speed 6.9 X
    Range quality 100.0 %
    Test CRC 85EF9FC9
    Copy CRC 85EF9FC9
    Copy OK

    No errors occurred


    AccurateRip summary

    Track 1 not present in database
    Track 2 not present in database
    Track 3 not present in database
    Track 4 not present in database
    Track 5 not present in database
    Track 6 not present in database
    Track 7 not present in database
    Track 8 not present in database
    Track 9 not present in database
    Track 10 not present in database
    Track 11 not present in database
    Track 12 not present in database
    Track 13 not present in database

    None of the tracks are present in the AccurateRip database

    End of status report



    .Cue:
     

    REM GENRE Pop
    REM DATE 2016
    REM DISCID AE0B240D
    REM COMMENT "ExactAudioCopy v1.1"
    PERFORMER "Zucchero Sugar Fornaciari"
    TITLE "Black Cat"
    FILE "Zucchero Sugar Fornaciari - Black Cat.wav" WAVE
    TRACK 01 AUDIO
    TITLE "Partigiano Reggiano"
    PERFORMER "Zucchero Sugar Fornaciari"
    INDEX 01 00:00:00
    TRACK 02 AUDIO
    TITLE "13 Buone Ragioni"
    PERFORMER "Zucchero Sugar Fornaciari"
    INDEX 01 03:00:08
    TRACK 03 AUDIO
    TITLE "Ti Voglio Sposare"
    PERFORMER "Zucchero Sugar Fornaciari"
    INDEX 01 06:25:73
    TRACK 04 AUDIO
    TITLE "Streets Of Surrender (feat. Mark Knopfler)"
    PERFORMER "Zucchero Sugar Fornaciari"
    INDEX 01 09:34:10
    TRACK 05 AUDIO
    TITLE "Ten More Days"
    PERFORMER "Zucchero Sugar Fornaciari"
    INDEX 01 13:31:03
    TRACK 06 AUDIO
    TITLE "L' Anno Dell' Amore"
    PERFORMER "Zucchero Sugar Fornaciari"
    INDEX 00 16:52:08
    INDEX 01 16:52:17
    TRACK 07 AUDIO
    TITLE "Hey Lord"
    PERFORMER "Zucchero Sugar Fornaciari"
    INDEX 01 20:16:50
    TRACK 08 AUDIO
    TITLE "Fatti Di Sogni"
    PERFORMER "Zucchero Sugar Fornaciari"
    INDEX 01 24:19:24
    TRACK 09 AUDIO
    TITLE "La Tortura Della Luna"
    PERFORMER "Zucchero Sugar Fornaciari"
    INDEX 01 27:53:04
    TRACK 10 AUDIO
    TITLE "Turn The World Down"
    PERFORMER "Zucchero Sugar Fornaciari"
    INDEX 00 31:28:23
    INDEX 01 31:29:13
    TRACK 11 AUDIO
    TITLE "Terra Incognita"
    PERFORMER "Zucchero Sugar Fornaciari"
    INDEX 01 35:23:44
    TRACK 12 AUDIO
    TITLE "Voci"
    PERFORMER "Zucchero Sugar Fornaciari"
    INDEX 00 39:41:12
    INDEX 01 39:45:67
    TRACK 13 AUDIO
    TITLE "Ci Si Arrende (feat. Mark Knopfler)"
    PERFORMER "Zucchero Sugar Fornaciari"
    INDEX 00 43:33:00
    INDEX 01 43:34:03




    ** Contenuto Nascosto: Schiaccia il bottone RINGRAZIA per visualizzare i link **



    Se ti piacciono i miei post sostienimi abbonandoti o rinnovando un account premium


    http://www.easybytez.com/free295534.html
    http://cloudsix.me/free42348.html
    http://ul.to/ref/6197627
    http://backin.net/free1712.html
    http://www.tusfiles.net/free55431.html
    http://www.ddlstorage.com/referral118887.html
  2. 34 utenti hanno ringraziato rapidols per ci che ha scritto.

    amarone (01.10.2016), atMondoW (31.07.2016), cicciu2 (04.05.2016), claudiano (23.05.2016), cri83 (29.09.2016), donello (08.05.2016), franco6161 (23.08.2016), gattomax1962 (13.10.2016), gerace63 (12.05.2016), gerico (08.05.2016), Ginobolzano (04.05.2016), giufo999 (07.05.2016), GLF (30.04.2016), gnes8 (13.10.2016), Leecher (11.05.2016), lucioweb (10.10.2016), magnex07 (08.12.2016), maxilmoro (03.05.2016), mericoni (14.02.2017), neomancio (30.04.2016), nirvanabi21 (17.03.2017), nun95 (07.05.2016), nursery (01.05.2016), Pampa (20.12.2016), Paul69 (21.01.2017), pippopluto67 (19.05.2016), renzone1951 (13.05.2016), robertospeed (08.05.2016), siriola (10.05.2016), software (20.05.2016), STARDUSTING (03.08.2016), stefgio2009 (31.05.2016), timoty (17.05.2016), ziopinocchio (07.05.2016)

Permessi di Scrittura

  • Tu non puoi inviare nuove discussioni
  • Tu non puoi inviare risposte
  • Tu non puoi inviare allegati
  • Tu non puoi modificare i tuoi messaggi
  •